<?xml version="1.0" standalone="no"?>
<!DOCTYPE svg PUBLIC "-//W3C//DTD SVG 1.1//EN" "http://www.w3.org/Graphics/SVG/1.1/DTD/svg11.dtd" >
<svg>
<metadata>
Created by FontForge 20120731 at Mon Jul 15 09:35:19 2019
 By www
(c) 2006 Microsoft Corporation, portions (c) Modular Infotech
</metadata>
<defs>
<font id="KalingaW64-Regular" horiz-adv-x="0" >
  <font-face 
    font-family="KalingaW64-Regular"
    font-weight="400"
    font-stretch="normal"
    units-per-em="2048"
    panose-1="2 0 6 0 0 0 0 0 0 0"
    ascent="1638"
    descent="-410"
    x-height="1053"
    cap-height="1454"
    bbox="-1211 -700 2583 2039"
    underline-thickness="20"
    underline-position="-290"
    unicode-range="U+0020-25CC"
  />
<missing-glyph horiz-adv-x="1032" 
d="M129 903h774v-903h-774v903zM838 64v774h-645v-774h645z" />
    <glyph glyph-name=".notdef" horiz-adv-x="1032" 
d="M129 903h774v-903h-774v903zM838 64v774h-645v-774h645z" />
    <glyph glyph-name=".null" 
 />
    <glyph glyph-name="glyph2" 
 />
    <glyph glyph-name="space" unicode=" " horiz-adv-x="556" 
 />
    <glyph glyph-name="exclam" unicode="!" horiz-adv-x="619" 
d="M368 397h-114l-22 1057h158zM230 0v175h157v-175h-157z" />
    <glyph glyph-name="quotedbl" unicode="&#x22;" horiz-adv-x="792" 
d="M630 1066h-110l-22 388h151zM275 1066h-110l-22 388h151z" />
    <glyph glyph-name="numbersign" unicode="#" horiz-adv-x="1195" 
d="M942 926l-84 -400h271v-95h-291l-90 -431h-95l91 431h-400l-90 -431h-93l91 431h-212v95h231l86 400h-264v91h284l90 433h93l-90 -433h399l93 433h95l-93 -433h218v-91h-240zM450 926l-85 -400h400l84 400h-399z" />
    <glyph glyph-name="dollar" unicode="$" horiz-adv-x="1198" 
d="M1120 395q0 -78 -29 -143.5t-88.5 -115.5t-150.5 -80t-215 -35v-163h-77v163q-225 6 -350.5 99t-163.5 259l137 33q12 -59 38.5 -108t71.5 -85t111 -57t156 -25v565q-7 1 -16 4q-9 2 -15 3q-76 20 -150.5 46.5t-133 69t-94.5 107t-36 161.5q0 85 33.5 147.5t93 103.5
t141 62t177.5 25v130h77v-130q106 -4 183 -26.5t130.5 -62.5t87.5 -97.5t53 -132.5l-138 -31q-11 53 -35 95t-61.5 72t-91.5 47.5t-128 21.5v-508q8 -1 14 -1t12 -3q84 -21 165 -47.5t146.5 -71t105.5 -114t40 -177.5zM560 1320q-85 -4 -144 -22t-95.5 -48t-53.5 -69
t-17 -85q0 -63 24.5 -106t67 -72.5t99 -49t119.5 -37.5v489zM984 393q0 74 -28 121.5t-75.5 78.5t-110.5 51t-133 37v-544q76 4 139.5 20t110 47t72 78t25.5 111z" />
    <glyph glyph-name="percent" unicode="%" horiz-adv-x="1910" 
d="M1791 450q0 -130 -24 -218.5t-66.5 -142.5t-99.5 -78t-123 -24q-65 0 -121.5 23.5t-98.5 77.5t-65.5 142.5t-23.5 219.5q0 136 23.5 225.5t66.5 142.5t100 74t124 21q65 0 120.5 -21t97.5 -74t66 -142.5t24 -225.5zM529 0h-119l972 1454h118zM433 1467q65 0 121 -21.5
t97.5 -74.5t65 -142t23.5 -225q0 -129 -24.5 -218t-66 -143.5t-98.5 -78t-121 -23.5q-66 0 -122 23t-97.5 77t-65.5 143t-24 220q0 136 24 225t66 142t98.5 74.5t123.5 21.5zM1669 450q0 107 -13 178.5t-36.5 115t-58 61.5t-78.5 18q-46 0 -82 -18t-61 -62t-38 -115
t-13 -178q0 -103 13 -174t38 -114t60.5 -62.5t79.5 -19.5q42 0 77 19.5t60 62.5t38.5 114t13.5 174zM619 1004q0 107 -12 178.5t-36 114t-58 60.5t-80 18t-82 -18t-60.5 -61t-37.5 -114t-13 -178q0 -102 13 -173t37.5 -115t60 -63.5t80.5 -19.5q42 0 76.5 19.5t59.5 63.5
t38.5 115t13.5 173z" />
    <glyph glyph-name="ampersand" unicode="&#x26;" horiz-adv-x="1450" 
d="M1256 -13q-47 0 -90.5 11.5t-81.5 31.5t-69.5 46.5t-57.5 55.5q-28 -28 -68 -55t-89 -49t-108 -35.5t-127 -13.5q-116 0 -201 31t-140 84.5t-81.5 125.5t-26.5 154q0 83 27 150t75.5 121.5t114.5 98t144 76.5q-18 37 -34 77.5t-29 82.5t-20 83t-7 79q0 68 20.5 126.5
t63 102t108.5 68t156 24.5q73 0 133.5 -19.5t105.5 -56t70 -90t25 -122.5q0 -79 -38 -137.5t-100 -105.5t-140.5 -84.5t-160.5 -73.5q68 -128 152 -246t178 -230q68 99 112.5 209t76.5 245l119 -32q-37 -152 -92 -273t-130 -228q60 -63 114.5 -90.5t107.5 -27.5q65 0 123 18
v-109q-29 -10 -62.5 -16.5t-72.5 -6.5zM944 1175q0 83 -57.5 134.5t-152.5 51.5q-110 0 -168 -58t-58 -161q0 -66 22.5 -138.5t56.5 -136.5q73 30 137.5 60t114 66t77.5 80.5t28 101.5zM875 212q-98 116 -188 243.5t-163 263.5q-131 -55 -202.5 -138.5t-71.5 -201.5
q0 -60 20 -113.5t59.5 -93t99.5 -63t141 -23.5q50 0 95.5 11t84 28.5t70 40t55.5 46.5z" />
    <glyph glyph-name="quotesingle" unicode="'" horiz-adv-x="437" 
d="M275 1066h-110l-22 388h151z" />
    <glyph glyph-name="parenleft" unicode="(" horiz-adv-x="722" 
d="M533 -470q-94 117 -164 230.5t-115.5 232t-68 248t-22.5 278.5t22.5 277t68 246t115.5 230t164 228h146q-100 -121 -171 -237t-116 -235t-66.5 -244.5t-21.5 -267.5t21.5 -267.5t66.5 -244.5t116 -235t171 -239h-146z" />
    <glyph glyph-name="parenright" unicode=")" horiz-adv-x="722" 
d="M560 519q0 -149 -22.5 -278.5t-68.5 -248t-115.5 -232t-163.5 -230.5h-146q99 123 170 239t117 235t67 244.5t21 267.5t-21 267.5t-67 244.5t-117 235t-170 237h146q94 -116 163.5 -228t115.5 -230t68.5 -246t22.5 -277z" />
    <glyph glyph-name="asterisk" unicode="*" horiz-adv-x="867" 
d="M480 1149l286 104l42 -107l-310 -79l197 -256l-99 -60l-163 262l-171 -261l-99 59l201 256l-307 79l40 112l290 -110l-13 306h120z" />
    <glyph glyph-name="plus" unicode="+" horiz-adv-x="1142" 
d="M627 645v-441h-115v441h-440v116h440v441h115v-441h440v-116h-440z" />
    <glyph glyph-name="comma" unicode="," horiz-adv-x="448" 
d="M235 -244h-98q81 125 81 244h-72v186h158v-140q0 -49 -3.5 -88t-12.5 -73.5t-22 -65.5t-31 -63z" />
    <glyph glyph-name="hyphen" unicode="-" horiz-adv-x="688" 
d="M90 466v124h506v-124h-506z" />
    <glyph glyph-name="period" unicode="." horiz-adv-x="448" 
d="M144 0v186h159v-186h-159z" />
    <glyph glyph-name="slash" unicode="/" horiz-adv-x="841" 
d="M165 0h-144l658 1503h138z" />
    <glyph glyph-name="zero" unicode="0" horiz-adv-x="1142" 
d="M1059 728q0 -211 -38.5 -354t-105 -231t-156 -126t-190.5 -38q-103 0 -192 38t-154.5 126t-102.5 231t-37 354q0 219 37 363.5t103 229.5t156.5 120t195.5 35q101 0 189.5 -35t153.5 -120t103 -229.5t38 -363.5zM916 728q0 181 -23.5 303t-68 195t-107.5 103.5t-144 30.5
q-83 0 -147.5 -31t-109 -104t-68.5 -194.5t-24 -302.5q0 -176 24 -296.5t68.5 -195.5t108.5 -107t145 -32q78 0 141.5 33t109.5 107.5t70.5 194.5t24.5 296z" />
    <glyph glyph-name="one" unicode="1" horiz-adv-x="1142" 
d="M157 0v116h390v1201l-348 -222v123l363 236h126v-1338h332v-116h-863z" />
    <glyph glyph-name="two" unicode="2" horiz-adv-x="1142" 
d="M101 0v101q43 103 117.5 192t159.5 169t172 154q86 74 155.5 147.5t114 151t44.5 162.5q0 72 -22 125.5t-62 88.5t-95 52t-123 17q-121 0 -203 -67.5t-97 -197.5l-143 14q9 77 40.5 143t86.5 116t135 79t184 29q102 0 184.5 -26t140.5 -75t89 -122t31 -168
q0 -78 -26 -147t-69.5 -132t-101 -121t-120 -113.5t-125.5 -109.5q-64 -54 -120.5 -109t-101.5 -111t-71 -117h756v-125h-930z" />
    <glyph glyph-name="three" unicode="3" horiz-adv-x="1142" 
d="M1046 401q0 -202 -123 -312t-348 -110q-130 0 -219 32.5t-146.5 86.5t-86 123t-37.5 143l146 15q9 -63 32.5 -114.5t65.5 -89t102.5 -58t142.5 -20.5q75 0 135 19t102.5 58t66 95.5t23.5 131.5q0 88 -38 141.5t-95 82.5t-123 38.5t-122 9.5h-103v129h99q55 0 116 12.5
t111 44t83 85.5t33 137q0 129 -75.5 204t-225.5 75q-134 0 -216 -70t-96 -195l-140 12q11 94 50.5 163t99.5 115t138 68.5t167 22.5q116 0 199.5 -30.5t137.5 -82t79 -121t25 -149.5q0 -65 -17.5 -121.5t-54 -101t-93.5 -77t-137 -47.5v-4q88 -9 152 -39.5t106.5 -76.5
t63 -103t20.5 -122z" />
    <glyph glyph-name="four" unicode="4" horiz-adv-x="1142" 
d="M881 347v-347h-139v347h-685v107l677 1000h147v-993h195v-114h-195zM742 1277l-556 -816h556v816z" />
    <glyph glyph-name="five" unicode="5" horiz-adv-x="1142" 
d="M1050 470q0 -110 -31.5 -200.5t-93.5 -155t-153.5 -100t-212.5 -35.5q-111 0 -192.5 26t-137.5 70.5t-89.5 104.5t-49.5 128l142 21q12 -44 34.5 -86t61 -75t96 -53t138.5 -20q77 0 140.5 24.5t109 72t70.5 116.5t25 158q0 72 -23.5 132.5t-68 104t-107 68t-142.5 24.5
q-102 0 -172 -32t-123 -75h-138l46 766h787v-119h-655l-32 -517q51 40 126.5 67.5t181.5 27.5t191.5 -32t145.5 -91t93 -140.5t33 -179.5z" />
    <glyph glyph-name="six" unicode="6" horiz-adv-x="1142" 
d="M1049 476q0 -110 -30 -201.5t-88 -157t-142.5 -102t-195.5 -36.5q-122 0 -213 50t-150.5 142.5t-88.5 225t-29 297.5q0 194 34.5 340t99.5 244t157 148t208 50q68 0 129 -14.5t112 -47t89.5 -86t62.5 -133.5l-133 -29q-33 103 -102 148.5t-158 45.5q-81 0 -147.5 -39.5
t-113.5 -117.5t-72.5 -195.5t-25.5 -272.5q50 101 144.5 154t216.5 53q98 0 178 -32.5t137.5 -93t89 -147t31.5 -193.5zM906 467q0 83 -21 150t-61.5 114.5t-100.5 73.5t-137 26q-55 0 -111 -16t-101.5 -53t-74 -96.5t-28.5 -145.5q0 -89 22 -166.5t64 -134t101 -89.5
t133 -33q148 0 231.5 97.5t83.5 272.5z" />
    <glyph glyph-name="seven" unicode="7" horiz-adv-x="1142" 
d="M539 0h-146q0 175 39.5 347.5t107.5 340t158.5 328t195.5 313.5h-779v125h918v-120q-104 -154 -194 -315.5t-157 -329.5t-105 -340t-38 -349z" />
    <glyph glyph-name="eight" unicode="8" horiz-adv-x="1142" 
d="M1049 404q0 -92 -28.5 -170t-86.5 -134.5t-147.5 -88.5t-213.5 -32q-123 0 -213 32t-149 88.5t-87.5 134t-28.5 167.5q0 80 24.5 142t64.5 108t92 73.5t107 36.5v4q-61 14 -108 46.5t-79.5 77.5t-49.5 101t-17 117q0 76 28.5 143t84 117.5t137.5 79.5t190 29
q112 0 196 -30t138.5 -80t82 -117t27.5 -143q0 -61 -17 -116.5t-50 -100.5t-80.5 -77t-109.5 -46v-4q62 -10 115 -37.5t93 -73t62.5 -107.5t22.5 -140zM867 1099q0 59 -16 108t-51.5 84.5t-92.5 55.5t-138 20q-79 0 -135 -20t-91.5 -55.5t-51.5 -84.5t-16 -108q0 -46 12 -95
t45 -90t90.5 -67.5t147.5 -26.5q97 0 155.5 26.5t89.5 67.5t41.5 90t10.5 95zM902 415q0 57 -16.5 110t-55 94t-102.5 65.5t-159 24.5q-87 0 -149.5 -24.5t-102.5 -65.5t-58.5 -94.5t-18.5 -112.5q0 -71 18.5 -130.5t59.5 -102t104.5 -66.5t152.5 -24q91 0 153.5 23
t101 66.5t55.5 103.5t17 133z" />
    <glyph glyph-name="nine" unicode="9" horiz-adv-x="1142" 
d="M1042 759q0 -195 -36 -341t-103 -243.5t-160.5 -146.5t-209.5 -49q-154 0 -253 66t-145 219l136 26q31 -102 96.5 -148.5t166.5 -46.5q81 0 148 39t115.5 116.5t75 194t27.5 271.5q-22 -53 -60.5 -94.5t-87.5 -70.5t-105.5 -43.5t-117.5 -14.5q-98 0 -177 36t-134 101
t-85 156t-30 201q0 111 31.5 201t91 154t146.5 99t197 35q236 0 354.5 -180.5t118.5 -536.5zM884 928q0 89 -21 167t-61.5 136t-100.5 92t-139 34q-73 0 -131 -26t-98.5 -73.5t-62.5 -116.5t-22 -154q0 -81 19 -150t58 -121t97.5 -81t137.5 -29q54 0 111.5 19.5t104.5 59.5
t77.5 100t30.5 143z" />
    <glyph glyph-name="colon" unicode=":" horiz-adv-x="448" 
d="M144 858v180h159v-180h-159zM144 0v179h159v-179h-159z" />
    <glyph glyph-name="semicolon" unicode=";" horiz-adv-x="448" 
d="M146 858v180h158v-180h-158zM235 -244h-98q81 125 81 244h-72v179h158v-133q0 -49 -3.5 -88t-12.5 -73.5t-22 -65.5t-31 -63z" />
    <glyph glyph-name="less" unicode="&#x3c;" horiz-adv-x="1142" 
d="M75 615v156l994 447v-125l-883 -399l883 -397v-125z" />
    <glyph glyph-name="equal" unicode="=" horiz-adv-x="1142" 
d="M72 891v118h995v-118h-995zM72 381v116h995v-116h-995z" />
    <glyph glyph-name="greater" unicode="&#x3e;" horiz-adv-x="1142" 
d="M72 172v125l885 397l-885 399v125l995 -447v-156z" />
    <glyph glyph-name="question" unicode="?" horiz-adv-x="1178" 
d="M1082 1069q0 -72 -20 -126t-52.5 -96t-74.5 -75.5t-86 -62.5q-44 -30 -86 -60.5t-75.5 -66.5t-53.5 -80.5t-21 -104.5h-137q1 93 36.5 155.5t87 110.5t111.5 87q59 38 110 81.5t85 98t34 133.5q0 67 -23 121t-67 93t-106.5 59.5t-141.5 20.5q-73 0 -135.5 -23t-109.5 -65
t-77 -98t-36 -122l-147 10q11 85 48.5 161t101.5 133t153 90t202 33q114 0 203 -28.5t151 -82t94 -128.5t32 -168zM470 0v175h157v-175h-157z" />
    <glyph glyph-name="at" unicode="@" horiz-adv-x="1910" 
d="M1854 748q0 -148 -36.5 -271.5t-99.5 -212.5t-146 -138.5t-179 -49.5q-78 0 -128.5 43.5t-50.5 134.5q0 17 1 44t7 49h-7q-20 -46 -59.5 -94.5t-91 -88t-115 -64t-132.5 -24.5q-101 0 -167 37t-104.5 94t-54 127.5t-15.5 138.5q0 118 35 231.5t101.5 202.5t163 144
t220.5 55q119 0 200 -56.5t119 -151.5h9l43 184h104l-120 -522q-21 -89 -32.5 -164.5t-11.5 -120.5q0 -35 9 -56.5t23 -33t30 -16t32 -4.5q67 0 130 42.5t112 118.5t79 183.5t30 236.5q0 142 -44.5 262.5t-132.5 209.5t-217 139t-298 50q-144 0 -265.5 -34t-220 -96.5
t-173.5 -148.5t-124.5 -189.5t-75.5 -221t-26 -241.5q0 -143 42 -270t129 -222.5t220 -151.5t315 -56q93 0 179 12.5t164.5 35t150.5 53t138 64.5l40 -76q-62 -35 -133 -68t-154 -58t-180.5 -40.5t-210.5 -15.5q-198 0 -349 63t-252 171t-152.5 252t-51.5 307
q0 143 32 274.5t92.5 246t147 207t197 158.5t241.5 102t279 36q205 0 354.5 -60.5t248 -163.5t145.5 -240t47 -288zM1272 751q0 58 -21.5 106.5t-60 83t-91.5 54t-116 19.5q-102 0 -177 -49.5t-124 -128.5t-72.5 -173.5t-23.5 -186.5q0 -71 15.5 -127.5t46.5 -96.5
t78.5 -61.5t111.5 -21.5q61 0 122.5 27.5t115.5 80t98 126t67 166.5q6 21 11.5 45.5t10 49t7 47.5t2.5 40z" />
    <glyph glyph-name="A" unicode="A" horiz-adv-x="1311" 
d="M1152 0l-172 450h-651l-170 -450h-155l565 1454h175l564 -1454h-156zM746 1081q-17 44 -33 88.5t-28.5 80t-19.5 58.5q-8 23 -10 26q-1 -5 -8.5 -29t-20 -59.5t-28 -78.5t-32.5 -86l-194 -511h568z" />
    <glyph glyph-name="B" unicode="B" horiz-adv-x="1410" 
d="M1289 410q0 -111 -42.5 -189t-114.5 -127t-167.5 -71.5t-199.5 -22.5h-566v1454h505q118 0 210.5 -20t157 -62.5t99 -109t34.5 -159.5q0 -61 -17.5 -115.5t-51.5 -98.5t-86.5 -75.5t-121.5 -47.5q87 -9 155 -40t113.5 -78t69 -107.5t23.5 -130.5zM1053 1089
q0 129 -88.5 187.5t-266.5 58.5h-351v-518h352q93 0 160 20t109.5 55.5t63.5 85.5t21 111zM1138 419q0 72 -30 126t-83.5 89.5t-128 52.5t-166.5 17h-383v-588h395q82 0 154.5 15.5t126 51.5t84.5 93.5t31 142.5z" />
    <glyph glyph-name="C" unicode="C" horiz-adv-x="1482" 
d="M801 -21q-170 0 -296 56.5t-209 157t-123.5 239t-40.5 302.5q0 170 40.5 307.5t123 233.5t205.5 148.5t290 52.5q125 0 218 -29t159.5 -77t111.5 -107t74 -120l-132 -50q-24 49 -60.5 95.5t-89 82.5t-122 58t-158.5 22q-133 0 -229 -44t-158.5 -124.5t-92 -195
t-29.5 -253.5t32.5 -254.5t97 -199.5t162 -130.5t226.5 -46.5q93 0 167 27t130.5 70.5t96.5 97.5t64 108l125 -58q-36 -69 -88 -135.5t-123 -118t-163.5 -83.5t-208.5 -32z" />
    <glyph glyph-name="D" unicode="D" horiz-adv-x="1566" 
d="M1433 742q0 -182 -54 -320t-149.5 -232.5t-224 -142t-277.5 -47.5h-529v1454h464q169 0 310.5 -41.5t244 -128.5t159 -221.5t56.5 -320.5zM1282 742q0 157 -45.5 268.5t-128 182.5t-197.5 103.5t-253 32.5h-311v-1204h359q125 0 230.5 39.5t182.5 117t120 193t43 267.5z
" />
    <glyph glyph-name="E" unicode="E" horiz-adv-x="1300" 
d="M199 0v1454h959v-123h-811v-523h748v-120h-748v-565h853v-123h-1001z" />
    <glyph glyph-name="F" unicode="F" horiz-adv-x="1196" 
d="M347 1329v-589h724v-125h-724v-615h-148v1454h900v-125h-752z" />
    <glyph glyph-name="G" unicode="G" horiz-adv-x="1543" 
d="M801 -21q-170 0 -296 56.5t-209 157t-123.5 239t-40.5 302.5q0 170 40.5 307.5t123 233.5t205.5 148.5t290 52.5q122 0 213.5 -28t159 -73.5t113 -104.5t76.5 -121l-135 -47q-25 50 -61.5 95t-88 79.5t-120 54.5t-157.5 20q-133 0 -229 -44t-158 -124.5t-91.5 -195
t-29.5 -253.5t32.5 -254.5t97 -199.5t162 -130.5t226.5 -46.5q83 0 152 16t125 41.5t98 56.5t69 62v314h-437v116h576v-487q-44 -49 -102.5 -93.5t-131.5 -77.5t-160.5 -52.5t-188.5 -19.5z" />
    <glyph glyph-name="H" unicode="H" horiz-adv-x="1589" 
d="M1245 0v698h-898v-698h-148v1454h148v-630h898v630h148v-1454h-148z" />
    <glyph glyph-name="I" unicode="I" horiz-adv-x="544" 
d="M199 0v1454h148v-1454h-148z" />
    <glyph glyph-name="J" unicode="J" horiz-adv-x="1067" 
d="M472 -21q-169 0 -271.5 86t-139.5 273l144 27q13 -70 38 -119.5t60 -81t79 -46.5t94 -15q125 0 188.5 80.5t63.5 231.5v914h-278v125h425v-1033q0 -101 -26 -182.5t-76.5 -139.5t-126 -89t-174.5 -31z" />
    <glyph glyph-name="K" unicode="K" horiz-adv-x="1307" 
d="M1116 0l-613 751l-156 -160v-591h-148v1454h148v-695l682 695h177l-607 -609l696 -845h-179z" />
    <glyph glyph-name="L" unicode="L" horiz-adv-x="1125" 
d="M199 0v1454h148v-1329h713v-125h-861z" />
    <glyph glyph-name="M" unicode="M" horiz-adv-x="1883" 
d="M1549 0v1020q0 53 2 102q1 49 2 87q1 44 3 84l-34 -88q-14 -38 -32 -83t-36 -84l-441 -1038h-133l-450 1038q-15 31 -32 75q-17 43 -33 83q-18 46 -37 97l4 -96q1 -41 1.5 -88t0.5 -89v-1020h-135v1454h196l478 -1090q3 -5 14 -35q11 -31 24 -66q14 -41 33 -91
q23 54 42 96q15 38 28 70q13 31 15 36l460 1080h196v-1454h-136z" />
    <glyph glyph-name="N" unicode="N" horiz-adv-x="1650" 
d="M1277 0l-949 1277q2 -44 4 -90q1 -40 1.5 -86t0.5 -87v-1014h-135v1454h169l957 -1285q-1 43 -4 89q-3 40 -3.5 90.5t-0.5 102.5v1003h136v-1454h-176z" />
    <glyph glyph-name="O" unicode="O" horiz-adv-x="1633" 
d="M1503 734q0 -170 -47 -309.5t-135.5 -238t-215.5 -153t-288 -54.5q-171 0 -299 56.5t-214 157t-129 239t-43 302.5q0 170 45 307.5t132 233.5t214.5 148.5t293.5 52.5q165 0 293 -53t215.5 -150t132.5 -233.5t45 -305.5zM1349 734q0 139 -34 253.5t-101.5 195t-167 124.5
t-229.5 44q-133 0 -233 -44t-167 -124.5t-100.5 -195t-33.5 -253.5t34.5 -254.5t102.5 -199.5t167 -130.5t230 -46.5q138 0 238.5 47t165.5 131t96.5 200t31.5 253z" />
    <glyph glyph-name="P" unicode="P" horiz-adv-x="1331" 
d="M1218 1024q0 -89 -30.5 -169.5t-91.5 -141t-153.5 -97t-214.5 -36.5h-381v-580h-148v1454h516q125 0 219 -31t157.5 -87t95 -135.5t31.5 -176.5zM1067 1023q0 148 -92.5 230t-276.5 82h-351v-637h359q93 0 161 24.5t112.5 68.5t66 103t21.5 129z" />
    <glyph glyph-name="Q" unicode="Q" horiz-adv-x="1633" 
d="M1503 734q0 -156 -39.5 -286.5t-113.5 -227t-181 -156t-243 -74.5q43 -138 111.5 -201.5t180.5 -63.5q26 0 58 4t55 9v-110q-29 -9 -70 -14t-82 -5q-84 0 -147 24t-111.5 71.5t-84 117.5t-62.5 161q-160 5 -280.5 63t-200.5 158t-120.5 235t-40.5 295q0 170 45 307.5
t132 233.5t214.5 148.5t293.5 52.5q165 0 293 -53t215.5 -150t132.5 -233.5t45 -305.5zM1349 734q0 139 -34 253.5t-101.5 195t-167 124.5t-229.5 44q-133 0 -233 -44t-167 -124.5t-100.5 -195t-33.5 -253.5t34.5 -254.5t102.5 -199.5t167 -130.5t230 -46.5q138 0 238.5 47
t165.5 131t96.5 200t31.5 253z" />
    <glyph glyph-name="R" unicode="R" horiz-adv-x="1353" 
d="M1091 0l-396 623h-348v-623h-148v1454h516q118 0 211.5 -28t158 -80t99 -127.5t34.5 -172.5q0 -68 -21.5 -134.5t-66.5 -122t-116 -94t-170 -53.5l423 -642h-176zM1067 1045q0 71 -25 125t-73 91t-115 55.5t-152 18.5h-355v-595h362q93 0 161 24t111 64.5t64.5 97
t21.5 119.5z" />
    <glyph glyph-name="S" unicode="S" horiz-adv-x="1367" 
d="M1236 393q0 -89 -33.5 -164t-101.5 -130.5t-171 -87.5t-242 -32q-249 0 -390.5 93t-178.5 265l145 32q15 -59 44 -108t80 -85.5t125 -56.5t176 -20q85 0 158.5 16.5t127 51t84 89.5t30.5 131q0 81 -39 132.5t-101.5 84.5t-140.5 54t-155 40q-56 14 -112 29.5t-107.5 37
t-96 49t-78 67t-52.5 92.5t-19 122q0 101 38 173t106 118t159.5 68t199.5 22q123 0 210 -21t148.5 -61.5t99 -101t57.5 -139.5l-147 -31q-13 57 -40 101t-71.5 74t-107.5 46.5t-151 16.5q-98 0 -166.5 -20t-109.5 -55t-60 -82t-19 -101q0 -70 31.5 -116t85 -77t124.5 -52
t150 -40l122 -32t118 -37.5t106 -50.5t85.5 -71t58 -98.5t21.5 -134.5z" />
    <glyph glyph-name="T" unicode="T" horiz-adv-x="1220" 
d="M688 1329v-1329h-151v1329h-511v125h1172v-125h-510z" />
    <glyph glyph-name="U" unicode="U" horiz-adv-x="1533" 
d="M751 -21q-118 0 -221 32t-178.5 98t-119.5 168t-44 243v934h149v-920q0 -113 32.5 -194.5t89.5 -133.5t133 -77.5t163 -25.5q85 0 164 26.5t140.5 80.5t99 138t37.5 199v907h148v-913q0 -144 -46.5 -249.5t-126.5 -174.5t-188 -103.5t-232 -34.5z" />
    <glyph glyph-name="V" unicode="V" horiz-adv-x="1277" 
d="M719 0h-160l-546 1454h160l374 -1046q17 -47 33 -96.5t29 -90.5q14 -48 28 -95q14 44 30 92q14 41 30 91t34 99l371 1046h160z" />
    <glyph glyph-name="W" unicode="W" horiz-adv-x="2039" 
d="M1576 0h-170l-307 998q-12 40 -26 92.5t-26 101.5q-14 57 -28 115q-13 -58 -27 -115q-12 -49 -25.5 -102t-26.5 -92l-304 -998h-170l-453 1454h156l294 -964q21 -66 37.5 -129.5t29.5 -114.5l29 -113q16 70 33 137q14 58 31.5 120.5t31.5 110.5l292 953h146l292 -953
q15 -46 32 -109t32 -121q16 -68 34 -138q2 0 11 36t23 90t31.5 117t33.5 114l288 964h159z" />
    <glyph glyph-name="X" unicode="X" horiz-adv-x="1249" 
d="M1066 0l-440 662l-443 -662h-162l520 765l-478 689h163l400 -596l397 596h163l-467 -689l509 -765h-162z" />
    <glyph glyph-name="Y" unicode="Y" horiz-adv-x="1214" 
d="M680 637v-637h-147v637l-523 817h163l433 -692l434 692h162z" />
    <glyph glyph-name="Z" unicode="Z" horiz-adv-x="1293" 
d="M1215 0h-1139v116l930 1213h-856v125h1029v-115l-929 -1214h965v-125z" />
    <glyph glyph-name="bracketleft" unicode="[" horiz-adv-x="648" 
d="M192 -470v1970h423v-103h-287v-1761h287v-106h-423z" />
    <glyph glyph-name="backslash" unicode="\" horiz-adv-x="841" 
d="M676 0l-653 1503h138l657 -1503h-142z" />
    <glyph glyph-name="bracketright" unicode="]" horiz-adv-x="648" 
d="M32 -470v106h287v1761h-287v103h422v-1970h-422z" />
    <glyph glyph-name="asciicircum" unicode="^" horiz-adv-x="1142" 
d="M970 512l-400 853l-397 -853h-124l444 942h156l446 -942h-125z" />
    <glyph glyph-name="underscore" unicode="_" horiz-adv-x="1057" 
d="M-21 -258v76h1098v-76h-1098z" />
    <glyph glyph-name="grave" unicode="`" horiz-adv-x="613" 
d="M433 1175l-307 289v25h162l238 -294v-20h-93z" />
    <glyph glyph-name="a" unicode="a" horiz-adv-x="1225" 
d="M1082 -10q-51 0 -86.5 14.5t-57.5 43.5t-33 72.5t-14 98.5h-3q-60 -108 -164.5 -174t-250.5 -66q-82 0 -148.5 20t-113 59t-71 94.5t-24.5 126.5q0 94 40.5 159t109.5 105.5t160 60t193 20.5l269 4v57q0 150 -73 215t-210 65q-66 0 -117.5 -11t-89 -35.5t-60 -64
t-30.5 -95.5l-145 15q10 64 41.5 119t85.5 94.5t133 61.5t183 22q207 0 315 -96.5t108 -279.5v-431q0 -86 21.5 -130t82.5 -44q15 0 34 4t33 7v-97q-29 -8 -59 -11t-59 -3zM888 529l-240 -7q-78 -1 -148 -12t-123 -37.5t-84 -72t-31 -115.5q0 -89 55 -139.5t174 -50.5
q92 0 165.5 32t125 81.5t79 111t27.5 120.5v89z" />
    <glyph glyph-name="b" unicode="b" horiz-adv-x="1277" 
d="M1166 530q0 -117 -27.5 -218.5t-85 -175t-145.5 -115.5t-206 -42q-133 0 -234.5 57t-152.5 157h-3q0 -28 -1 -61t-3 -61t-3.5 -48t-2.5 -23h-133q0 5 0.5 25.5t1.5 51.5q1 30 1.5 68.5t0.5 78.5v1275h142v-475v-61t-2 -56q-1 -30 -2 -56h4q59 107 157 163.5t250 56.5
q114 0 197 -41.5t138 -113.5t82 -171t27 -215zM1020 530q0 101 -21 180t-65 135.5t-110.5 86t-155.5 29.5q-71 0 -135.5 -22.5t-113.5 -74t-78.5 -135.5t-29.5 -207q0 -120 29 -203t77.5 -134t113 -73.5t135.5 -22.5q172 0 263 114t91 327z" />
    <glyph glyph-name="c" unicode="c" horiz-adv-x="1164" 
d="M1060 303q-14 -64 -48 -123t-90 -103.5t-133.5 -71t-178.5 -26.5q-126 0 -220.5 40t-156 112t-92.5 171t-31 217q0 129 34 231.5t99 173.5t158.5 109t213.5 38q98 0 175 -24.5t132 -67t89.5 -100t47.5 -123.5l-143 -14q-19 96 -94.5 159t-210.5 63q-87 0 -154 -30
t-113 -86t-69 -136t-23 -182q0 -217 95 -329t266 -112q136 0 213 64.5t99 174.5z" />
    <glyph glyph-name="d" unicode="d" horiz-adv-x="1277" 
d="M974 0q0 3 -2 24q-2 20 -4 49.5t-3 64t-1 63.5h-2q-59 -107 -156.5 -164.5t-250.5 -57.5q-114 0 -198 41.5t-138.5 114.5t-81.5 172t-27 215q0 119 28 219t86.5 173.5t146 115t204.5 41.5q137 0 236.5 -57.5t150.5 -155.5h2v20.5t-1 42.5q-1 25 -1 56.5v62.5v459h141
v-1275q0 -40 0.5 -78.5t1.5 -68.5q1 -31 1.5 -51.5t0.5 -25.5h-133zM966 530q0 120 -29 203.5t-77.5 134t-113 73.5t-135.5 23q-172 0 -264 -114.5t-92 -327.5q0 -100 21.5 -180t65.5 -136t110.5 -86.5t156.5 -30.5q71 0 135.5 23t114 75.5t78.5 136.5t29 206z" />
    <glyph glyph-name="e" unicode="e" horiz-adv-x="1200" 
d="M255 497q0 -87 21.5 -162.5t66.5 -130t114 -86.5t165 -32q122 0 205.5 53t116.5 142l132 -23q-17 -44 -50 -93.5t-87 -90t-132.5 -68t-189.5 -27.5q-116 0 -210 35.5t-159.5 106t-101.5 173.5t-36 239q0 151 43.5 254t114.5 166.5t161.5 90.5t183.5 27q125 0 216 -40
t149.5 -112.5t86.5 -171.5t28 -218v-32h-838zM613 964q-67 0 -129.5 -19.5t-111 -63t-79.5 -112.5t-35 -168h695q-6 84 -28.5 151t-64 114t-102.5 72.5t-145 25.5z" />
    <glyph glyph-name="f" unicode="f" horiz-adv-x="580" 
d="M341 942v-942h-140v942h-155v111h155v162q0 60 10 111.5t37 90t75.5 60.5t124.5 22q29 0 59 -3t52 -7v-109q-17 3 -39.5 5.5t-42.5 2.5q-42 0 -68.5 -13t-42 -36t-20.5 -57.5t-5 -76.5v-152h218v-111h-218z" />
    <glyph glyph-name="g" unicode="g" horiz-adv-x="1277" 
d="M1103 828v-798q0 -243 -127 -371.5t-367 -128.5q-102 0 -179.5 19t-133.5 54t-91.5 83t-52.5 109l140 23q27 -82 107 -132t212 -50q82 0 146.5 24t110 71.5t70 120.5t24.5 171q0 26 1 58q1 31 1 60v67h-2q-59 -109 -156.5 -165t-250.5 -56q-114 0 -198 40.5t-138.5 113
t-81.5 171t-27 214.5q0 119 28 218.5t86.5 172t146 113.5t204.5 41q137 0 236.5 -57.5t150.5 -155.5h2q0 28 1 61t3 62t4 49t2 23h133q0 -6 -0.5 -26.5t-1.5 -50.5t-1.5 -68.5t-0.5 -79.5zM966 533q0 118 -29 200t-77.5 133.5t-113 74.5t-135.5 23q-172 0 -264 -113.5
t-92 -324.5q0 -99 21.5 -178.5t65.5 -135.5t110.5 -86.5t156.5 -30.5q71 0 135.5 23t114 74.5t78.5 135.5t29 205z" />
    <glyph glyph-name="h" unicode="h" horiz-adv-x="1251" 
d="M947 0v633q0 74 -16 134.5t-51.5 104t-92 67t-134.5 23.5q-74 0 -136 -29t-107 -79t-70 -118t-25 -146v-590h-142v1500h142v-454q0 -35 -1 -71q-2 -37 -3 -67q-1 -31 -2 -52q-2 -21 -2 -25h4q66 122 161.5 181t229.5 59q102 0 174.5 -29t119 -81.5t68.5 -126.5t22 -166
v-668h-139z" />
    <glyph glyph-name="i" unicode="i" horiz-adv-x="488" 
d="M173 1338v162h142v-162h-142zM173 0v1053h142v-1053h-142z" />
    <glyph glyph-name="j" unicode="j" horiz-adv-x="488" 
d="M173 1338v162h142v-162h-142zM89 -470q-26 0 -55 2t-51 5v106q11 -3 34.5 -5t34.5 -2q38 0 61.5 13.5t37 39t18 62t4.5 84.5v1218h142v-1225q0 -61 -8.5 -116t-33 -95t-69 -63.5t-115.5 -23.5z" />
    <glyph glyph-name="k" unicode="k" horiz-adv-x="1076" 
d="M890 0l-429 522l-146 -132v-390h-142v1500h142v-966l543 519h171l-470 -440l500 -613h-169z" />
    <glyph glyph-name="l" unicode="l" horiz-adv-x="488" 
d="M173 0v1500h142v-1500h-142z" />
    <glyph glyph-name="m" unicode="m" horiz-adv-x="1947" 
d="M1642 0v617q0 74 -14 137.5t-46.5 110t-84.5 72t-130 25.5q-68 0 -126.5 -28t-101.5 -78t-66.5 -117.5t-23.5 -145.5v-593h-140v617q0 74 -14 137.5t-47 110t-85 72t-130 25.5q-68 0 -126.5 -29t-101.5 -79t-66.5 -118t-23.5 -146v-590h-142v817q0 34 -0.5 73.5
t-1.5 73.5t-1.5 58.5t-0.5 30.5h129q0 -4 2 -32q1 -29 2.5 -64.5l3 -71t1.5 -54.5h4q62 122 153 181t220 59q75 0 132 -19t99 -52.5t70 -80t42 -102.5h4q62 123 157.5 188.5t227.5 65.5q102 0 172 -33.5t113 -91t61.5 -134.5t18.5 -163v-649h-139z" />
    <glyph glyph-name="n" unicode="n" horiz-adv-x="1251" 
d="M947 0v617q0 74 -15.5 137.5t-50.5 110t-91 72t-137 25.5q-74 0 -136 -29t-107 -79t-70 -118t-25 -146v-590h-142v817q0 34 -0.5 73.5t-1.5 73.5t-1.5 58.5t-0.5 30.5h129q0 -4 2 -32q1 -29 2.5 -64.5l3 -71t1.5 -54.5h4q66 122 161.5 181t229.5 59q107 0 180.5 -33.5
t118.5 -91t65 -134.5t20 -163v-649h-139z" />
    <glyph glyph-name="o" unicode="o" horiz-adv-x="1253" 
d="M1146 526q0 -120 -33 -220t-99 -172.5t-164 -113.5t-228 -41q-124 0 -220 40t-160.5 113t-98 173.5t-33.5 220.5q0 118 31.5 217t95.5 172t161 114.5t229 41.5q139 0 238 -41t160.5 -113.5t91 -172t29.5 -218.5zM998 526q0 225 -92.5 331.5t-273.5 106.5
q-182 0 -279.5 -109t-97.5 -329q0 -112 26.5 -194t75 -136t115 -80.5t147.5 -26.5q181 0 280 106t99 331z" />
    <glyph glyph-name="p" unicode="p" horiz-adv-x="1277" 
d="M1169 530q0 -117 -28.5 -218.5t-86.5 -175t-146 -115.5t-206 -42q-133 0 -233.5 57t-153.5 157h-4q0 -1 1 -19q0 -18 1 -46q0 -29 1 -62q1 -34 1 -66v-470h-142v1298q0 41 -0.5 79.5t-1.5 68.5t-1.5 50.5t-0.5 26.5h133q1 -3 2.5 -23.5t2.5 -50.5q1 -31 3 -65
q1 -34 1 -63h4q60 107 157.5 164.5t249.5 57.5q115 0 199 -41t139 -114t82 -172.5t27 -215.5zM1023 530q0 101 -22 181t-66 136t-111 86.5t-156 30.5q-71 0 -135.5 -23.5t-113.5 -75.5t-78.5 -136t-29.5 -207q0 -120 29 -203t77.5 -134t113 -73.5t135.5 -22.5
q172 0 264.5 114t92.5 327z" />
    <glyph glyph-name="q" unicode="q" horiz-adv-x="1277" 
d="M1103 828v-1298h-141v488q0 26 1 58q1 31 1 59v66h-2q-59 -107 -156.5 -164.5t-250.5 -57.5q-114 0 -198 41.5t-138.5 114.5t-81.5 172t-27 215q0 119 28 219t86.5 173.5t146 115t204.5 41.5q137 0 236.5 -57.5t150.5 -155.5h2q0 28 1 61t3 62t4 49t2 23h133
q0 -6 -0.5 -26.5t-1.5 -50.5t-1.5 -68.5t-0.5 -79.5zM966 530q0 120 -29 203.5t-77.5 134t-113 73.5t-135.5 23q-172 0 -264 -114.5t-92 -327.5q0 -100 21.5 -180t65.5 -136t110.5 -86.5t156.5 -30.5q71 0 135.5 23t114 75.5t78.5 136.5t29 206z" />
    <glyph glyph-name="r" unicode="r" horiz-adv-x="712" 
d="M599 956q-71 0 -124.5 -35.5t-89 -94t-53 -135t-17.5 -158.5v-533h-142v792q0 35 -0.5 78t-1.5 82t-1.5 67t-0.5 34h129q0 -4 2 -34q1 -31 3 -69q1 -39 2.5 -78t1.5 -59h4q21 65 48 113.5t65 80t86.5 48t111.5 16.5q46 0 73 -11v-116q-18 7 -42.5 9.5t-53.5 2.5z" />
    <glyph glyph-name="s" unicode="s" horiz-adv-x="1050" 
d="M957 292q0 -73 -29 -130.5t-84.5 -98t-136 -62.5t-183.5 -22q-92 0 -166.5 13.5t-131 44.5t-94.5 83.5t-56 129.5l132 29q14 -60 41.5 -98t68.5 -60t93 -29.5t113 -7.5q64 0 118.5 11.5t95 35.5t63 60.5t22.5 87.5q0 55 -28.5 89t-76.5 57t-111 38.5t-131 30.5
q-66 16 -129.5 34.5t-113.5 50t-81 79.5t-31 120q0 137 104 215t304 78q77 0 144 -15t120 -46.5t89 -81.5t49 -119l-130 -17q-9 50 -34 83.5t-62 53.5t-82 28.5t-94 8.5q-137 0 -206 -47t-69 -127q0 -48 23.5 -79.5t64.5 -52.5t99 -36t128 -31t139.5 -35.5t125 -52.5
t89.5 -84t34 -129z" />
    <glyph glyph-name="t" unicode="t" horiz-adv-x="609" 
d="M404 -17q-109 0 -165 60t-56 183v716h-139v111h142l46 242h93v-242h240v-111h-240v-692q0 -81 33.5 -119t99.5 -38q27 0 59.5 4.5t61.5 12.5v-104q-40 -10 -84 -16.5t-91 -6.5z" />
    <glyph glyph-name="u" unicode="u" horiz-adv-x="1251" 
d="M956 0q-1 4 -3 31.5t-4 63t-3.5 72t-1.5 55.5h-4q-65 -125 -160.5 -184t-229.5 -59q-108 0 -181.5 33.5t-118.5 92t-65 135.5t-20 164v649h139v-620q0 -73 15.5 -136.5t50.5 -109t91 -71.5t138 -26q72 0 134 28.5t107 79t71 118.5t26 147v590h140v-817q0 -35 0.5 -75
t2.5 -74q1 -34 1.5 -58.5t0.5 -28.5h-126z" />
    <glyph glyph-name="v" unicode="v" horiz-adv-x="1057" 
d="M606 0h-166l-412 1053h150l273 -734q8 -21 18.5 -49.5t21 -57.5t19.5 -56.5t14 -49.5q6 20 15 47.5t19.5 56.5t21 57t19.5 50l282 736h148z" />
    <glyph glyph-name="w" unicode="w" horiz-adv-x="1718" 
d="M1321 0h-165l-236 725q-9 28 -19.5 63.5t-20.5 69.5q-12 39 -22 79q-12 -40 -23 -79q-11 -34 -22 -70t-21 -66l-240 -722h-162l-354 1053h142l241 -752q8 -25 17 -59t18 -64q10 -35 19 -72q12 40 22 76q9 31 19 64t16 55l252 752h155l242 -752q9 -29 19 -62q9 -34 18 -64
q11 -34 20 -69q10 36 20 71q9 29 19 62.5t18 61.5l250 752h139z" />
    <glyph glyph-name="x" unicode="x" horiz-adv-x="1019" 
d="M824 0l-316 446l-320 -446h-152l391 541l-374 512h159l296 -423l293 423h159l-373 -510l397 -543h-160z" />
    <glyph glyph-name="y" unicode="y" horiz-adv-x="1038" 
d="M560 -83q-39 -99 -76.5 -172t-78 -120.5t-86.5 -71t-100 -23.5q-73 0 -122 9v113q18 -4 40.5 -6.5t40.5 -2.5q80 0 138.5 79t113.5 225l18 53l-420 1053h150l219 -590q2 -2 11.5 -27.5t22.5 -60.5q13 -36 29 -76q15 -41 28 -77t22 -60q9 -25 10 -29q1 4 9.5 28.5t21.5 59
t29 74.5q15 40 29 75q13 35 22 59.5t10 28.5l223 595h149z" />
    <glyph glyph-name="z" unicode="z" horiz-adv-x="966" 
d="M68 0v112l634 826h-592v115h753v-115l-635 -823h667v-115h-827z" />
    <glyph glyph-name="braceleft" unicode="{" horiz-adv-x="719" 
d="M537 -470q-129 0 -192.5 81.5t-63.5 219.5v387q0 65 -14 110.5t-42 75t-68.5 44.5t-93.5 18v100q107 7 162.5 61t55.5 184v389q0 143 62.5 221.5t193.5 78.5h151v-104h-108q-92 0 -132 -57t-40 -168v-393q0 -103 -53.5 -171.5t-139.5 -87.5v-3q89 -22 141 -89t52 -173
v-393q0 -113 40 -169t132 -56h108v-106h-151z" />
    <glyph glyph-name="bar" unicode="|" horiz-adv-x="503" 
d="M188 -470v1970h129v-1970h-129z" />
    <glyph glyph-name="braceright" unicode="}" horiz-adv-x="719" 
d="M437 218v-387q0 -138 -63.5 -219.5t-194.5 -81.5h-149v106h105q95 0 134 56t39 169v393q0 106 53 173t142 89v3q-42 10 -77.5 32t-62 55.5t-41 76.5t-14.5 95v393q0 111 -39 168t-134 57h-105v104h149q132 0 195 -78.5t63 -221.5v-389q0 -65 14.5 -110.5t42 -73.5
t68 -42.5t93.5 -18.5v-100q-53 -3 -93.5 -18t-68 -44.5t-42 -75t-14.5 -110.5z" />
    <glyph glyph-name="asciitilde" unicode="~" horiz-adv-x="1142" 
d="M817 590q-68 0 -141.5 21t-146.5 48q-129 49 -218 49q-76 0 -132 -24.5t-116 -66.5v114q49 40 115 63.5t147 23.5q84 0 160 -23.5t151 -50.5q44 -16 97.5 -31t99.5 -15q66 0 129.5 25.5t113.5 68.5v-120q-62 -48 -121.5 -65t-137.5 -17z" />
    <glyph glyph-name="uni00A0" unicode="&#xa0;" horiz-adv-x="556" 
 />
    <glyph glyph-name="exclamdown" unicode="&#xa1;" horiz-adv-x="619" 
d="M230 877v176h160v-176h-160zM228 -401l22 1056h114l23 -1056h-159z" />
    <glyph glyph-name="cent" unicode="&#xa2;" horiz-adv-x="1164" 
d="M659 173v-205h-94v205q-114 8 -199.5 50.5t-142.5 112.5t-85 165.5t-28 207.5q0 123 30 221.5t89 170.5t143.5 113.5t192.5 49.5v190h94v-190q88 -5 156.5 -32t118 -68.5t81 -95.5t44.5 -116l-143 -15q-19 96 -94.5 158.5t-210.5 62.5q-87 0 -154 -30t-113 -86t-69 -137
t-23 -183q0 -216 95 -331t266 -115q62 0 115.5 16t94 48t68 77t37.5 103l138 -12q-9 -62 -39 -120t-81 -103.5t-122.5 -75.5t-164.5 -36z" />
    <glyph glyph-name="sterling" unicode="&#xa3;" horiz-adv-x="1200" 
d="M1186 261q-10 -37 -29 -82t-53.5 -85t-87 -67t-128.5 -27h-825v123q54 28 89.5 57.5t57 69.5t30.5 93.5t9 128.5v200h-192v108h192v296q0 192 109 296t317 104q156 0 253.5 -65.5t139.5 -191.5l-137 -43q-28 87 -90 131t-166 44q-141 0 -212 -68.5t-71 -216.5v-286h432
v-108h-432v-196q0 -63 -7 -115.5t-24.5 -95t-46.5 -76.5t-74 -63h622q86 0 132.5 46.5t68.5 122.5z" />
    <glyph glyph-name="currency" unicode="&#xa4;" horiz-adv-x="1138" 
d="M146 706q0 73 22 138t63 120l-106 105l80 80l105 -104q54 41 120.5 65t140.5 24t139 -22.5t119 -64.5l99 99l82 -83l-98 -97q41 -54 64.5 -120.5t23.5 -139.5q0 -75 -24 -141t-65 -120l103 -102l-80 -82l-105 104q-54 -41 -119 -63t-139 -22q-73 0 -139 22.5t-120 63.5
l-107 -105l-82 80l108 108q-41 54 -63 118.5t-22 138.5zM244 706q0 -67 25.5 -127t70 -104.5t104.5 -70.5t127 -26q69 0 129 26t104.5 70.5t70 104.5t25.5 127q0 68 -25.5 128t-70 104.5t-104.5 70.5t-129 26q-67 0 -127 -26t-104.5 -70.5t-70 -104.5t-25.5 -128z" />
    <glyph glyph-name="yen" unicode="&#xa5;" horiz-adv-x="1214" 
d="M731 728h358v-92h-413v-262h413v-93h-413v-281h-139v281h-412v93h412v262h-412v92h357l-468 726h159l433 -692l434 692h158z" />
    <glyph glyph-name="brokenbar" unicode="&#xa6;" horiz-adv-x="503" 
d="M188 698v802h129v-802h-129zM188 -470v804h129v-804h-129z" />
    <glyph glyph-name="section" unicode="&#xa7;" horiz-adv-x="1071" 
d="M537 1473q77 0 145.5 -14.5t122 -47t89 -81.5t48.5 -119l-131 -19q-9 50 -34 85t-61.5 55.5t-82.5 29.5t-96 9q-138 0 -208.5 -49.5t-70.5 -129.5q0 -52 26.5 -87.5t70.5 -60.5t101 -42.5t119 -31.5q69 -17 138.5 -40.5t125.5 -61t92 -92t36 -131.5q0 -48 -14.5 -93
t-44.5 -83.5t-74.5 -66.5t-103.5 -41q54 -22 97.5 -48.5t73.5 -60t46.5 -76t16.5 -96.5q0 -147 -112.5 -231.5t-321.5 -84.5q-93 0 -169 13.5t-134 46t-97.5 84t-57.5 128.5l132 28q11 -59 41 -98.5t72.5 -61t96.5 -30.5t116 -9q63 0 118.5 12t97 37t65.5 64t24 92
q0 58 -30 98t-79.5 68t-112.5 47t-131 34q-65 16 -131.5 40t-120 62t-87 92t-33.5 130q0 47 16 90.5t47 80.5t76 65.5t102 42.5q-44 14 -84 37t-70.5 55.5t-47.5 73.5t-17 92q0 138 102.5 216.5t302.5 78.5zM838 627q0 54 -27.5 93.5t-74 68t-107 47.5t-126.5 33
q-63 -3 -112 -21.5t-83.5 -48t-51.5 -68t-17 -83.5q0 -51 25 -87.5t67.5 -63.5t100 -46.5t123.5 -36.5q60 0 112 14t90 41.5t59.5 66.5t21.5 91z" />
    <glyph glyph-name="dieresis" unicode="&#xa8;" horiz-adv-x="641" 
d="M461 1196v174h125v-174h-125zM54 1196v174h125v-174h-125z" />
    <glyph glyph-name="copyright" unicode="&#xa9;" horiz-adv-x="1618" 
d="M1553 730q0 -155 -58.5 -291t-159 -237t-237 -160t-290.5 -59q-102 0 -197.5 26.5t-179 75.5t-151.5 117t-116.5 151t-75.5 178.5t-27 198.5q0 155 58.5 290.5t160 236.5t237.5 160t291 59q154 0 290.5 -59t237 -160t159 -236.5t58.5 -290.5zM1467 730q0 136 -51.5 255
t-141.5 208t-210 140.5t-256 51.5q-137 0 -257 -51.5t-209 -140.5t-140.5 -208t-51.5 -255q0 -137 51.5 -257.5t140.5 -210t209 -141t257 -51.5q136 0 256 51.5t210 141t141.5 210t51.5 257.5zM818 283q-103 0 -179.5 33.5t-126.5 93.5t-75 142.5t-25 178.5
q0 102 24.5 183.5t74.5 139t125 87.5t175 30q77 0 133 -18t97 -47t69 -65.5t46 -74.5l-99 -29q-13 27 -34 53.5t-50.5 46.5t-69 32t-90.5 12q-75 0 -130 -25t-91 -71t-53 -110.5t-17 -143.5q0 -78 19 -144t55.5 -113.5t92 -73.5t129.5 -26q53 0 94 14t72 38t52.5 54t36.5 61
l101 -29q-23 -44 -53 -85t-72.5 -73.5t-98.5 -51.5t-132 -19z" />
    <glyph glyph-name="ordfeminine" unicode="&#xaa;" horiz-adv-x="920" 
d="M824 670q-82 0 -117 44.5t-37 126.5h-7q-43 -81 -119 -129.5t-183 -48.5q-121 0 -191.5 58.5t-70.5 166.5q0 70 30.5 118t81.5 77t118 42t141 14l193 3v47q0 105 -51.5 154.5t-148.5 49.5q-93 0 -144.5 -38t-63.5 -123l-122 9q8 49 32.5 91t65.5 73.5t99 49.5t136 18
q152 0 234 -69.5t82 -205.5v-314q0 -65 15.5 -96.5t60.5 -31.5q13 0 27 3t24 6v-81q-21 -8 -44 -11t-41 -3zM663 1067l-169 -7q-55 0 -104 -7.5t-86.5 -25.5t-59.5 -49t-22 -80q0 -31 9 -57.5t29 -46.5t51.5 -31.5t75.5 -11.5q64 0 115 25t87.5 63t55 84t18.5 86v58z" />
    <glyph glyph-name="guillemotleft" unicode="&#xab;" horiz-adv-x="1113" 
d="M895 146l-345 378v62l345 384h128v-28l-350 -387l351 -382v-27h-129zM437 146l-348 378v62l348 384h125v-28l-347 -387l350 -382v-27h-128z" />
    <glyph glyph-name="logicalnot" unicode="&#xac;" horiz-adv-x="1142" 
d="M953 204v441h-881v116h995l2 -557h-116z" />
    <glyph glyph-name="uni00AD" unicode="&#xad;" horiz-adv-x="688" 
d="M90 466v124h506v-124h-506z" />
    <glyph glyph-name="registered" unicode="&#xae;" horiz-adv-x="1618" 
d="M1553 730q0 -155 -58.5 -291t-159 -237t-237 -160t-290.5 -59q-102 0 -197.5 26.5t-179 75.5t-151.5 117t-116.5 151t-75.5 178.5t-27 198.5q0 155 58.5 290.5t160 236.5t237.5 160t291 59q154 0 290.5 -59t237 -160t159 -236.5t58.5 -290.5zM1467 730q0 136 -51.5 255
t-141.5 208t-210 140.5t-256 51.5q-137 0 -257 -51.5t-209 -140.5t-140.5 -208t-51.5 -255q0 -137 51.5 -257.5t140.5 -210t209 -141t257 -51.5q136 0 256 51.5t210 141t141.5 210t51.5 257.5zM1031 297l-214 352h-190v-352h-105v861h306q141 0 219 -63t78 -178
q0 -109 -56 -173t-148 -82l232 -365h-122zM1017 916q0 77 -53 116t-144 39h-193v-336h208q89 0 135.5 48.5t46.5 132.5z" />
    <glyph glyph-name="macron" unicode="&#xaf;" horiz-adv-x="1057" 
d="M-21 1636v76h1098v-76h-1098z" />
    <glyph glyph-name="degree" unicode="&#xb0;" horiz-adv-x="805" 
d="M684 1198q0 -58 -22 -109t-60 -89t-89 -59t-109 -21t-109.5 21t-90 59t-60 89t-21.5 109t21.5 109t60 89t90 60t109.5 22t109 -22t89 -60t60 -89t22 -109zM593 1198q0 40 -14.5 75t-40.5 61.5t-61 41.5t-73 15q-40 0 -75 -15t-61.5 -41.5t-41 -61.5t-14.5 -75t14.5 -74.5
t41 -60.5t61.5 -41.5t75 -15.5q38 0 73 15.5t61 41.5t40.5 60.5t14.5 74.5z" />
    <glyph glyph-name="plusminus" unicode="&#xb1;" horiz-adv-x="1143" 
d="M627 689v-423h-115v423h-440v113h440v422h115v-422h440v-113h-440zM72 0v116h995v-116h-995z" />
    <glyph glyph-name="uni00B2" unicode="&#xb2;" horiz-adv-x="823" 
d="M125 580v88q26 62 70.5 112.5t96 93.5t104.5 83q53 39 96 79.5t70.5 85t27.5 98.5q0 71 -40 114.5t-123 43.5q-77 0 -125.5 -42t-56.5 -116l-110 5q7 53 29 97t59.5 76.5t89.5 50.5t118 18q131 0 202 -64t71 -175q0 -63 -27.5 -116t-71 -99t-95.5 -87q-53 -41 -103 -81
t-91 -80.5t-61 -85.5h461v-99h-591z" />
    <glyph glyph-name="uni00B3" unicode="&#xb3;" horiz-adv-x="809" 
d="M722 820q0 -120 -77 -185.5t-214 -65.5q-85 0 -142.5 19.5t-94.5 51t-54 72.5t-24 85l110 12q10 -75 59.5 -114.5t144.5 -39.5q86 0 133.5 41.5t47.5 127.5q0 51 -20.5 81t-52 47t-67.5 22.5t-67 5.5h-63v93h59q31 0 64 8t60.5 26.5t45 49t17.5 74.5q0 68 -41.5 107.5
t-119.5 39.5t-125 -41.5t-53 -112.5l-113 11q7 58 32 101.5t64 72.5t89 43.5t107 14.5q68 0 119 -17.5t85.5 -47t51 -71t16.5 -89.5q0 -76 -43 -132.5t-134 -76.5v-4q53 -5 91 -24t62 -47.5t35.5 -64t11.5 -73.5z" />
    <glyph glyph-name="acute" unicode="&#xb4;" horiz-adv-x="613" 
d="M86 1175v20l239 294h161v-25l-307 -289h-93z" />
    <glyph glyph-name="uni00B5" unicode="&#xb5;" horiz-adv-x="1260" 
d="M964 0q0 4 -2 31q-2 26 -4 60t-3.5 69t-1.5 54h-4q-113 -235 -363 -235q-93 0 -164.5 37.5t-106.5 106.5h-4q2 -34 3 -69t1 -64v-385h-142v1448h142v-620q0 -73 15.5 -136.5t49.5 -109t89.5 -71.5t136.5 -26q74 0 136 28.5t107 79t70 118.5t25 147v590h142v-817
q0 -35 0.5 -75t2.5 -74q1 -34 1.5 -58.5t0.5 -28.5h-127z" />
    <glyph glyph-name="paragraph" unicode="&#xb6;" horiz-adv-x="1096" 
d="M873 1365v-1637h-95v1637h-235v-1637h-95v988q-83 0 -152.5 23t-118.5 69t-77 114.5t-28 159.5q0 87 26.5 156t75.5 116.5t120.5 73.5t162.5 26h552v-89h-136z" />
    <glyph glyph-name="periodcentered" unicode="&#xb7;" horiz-adv-x="448" 
d="M144 637v186h159v-186h-159z" />
    <glyph glyph-name="periodcentered" unicode="&#x2219;" horiz-adv-x="448" 
d="M144 637v186h159v-186h-159z" />
    <glyph glyph-name="cedilla" unicode="&#xb8;" horiz-adv-x="602" 
d="M493 -268q0 -88 -63.5 -137t-207.5 -49q-22 0 -43.5 0.5t-45.5 3.5v89q26 -3 48 -5t41 -2q45 0 76 7.5t49 19.5t26 29t8 37q0 45 -32 68.5t-113 23.5q-15 0 -30.5 -1.5t-30.5 -3.5l70 188h93l-41 -110q95 -2 145.5 -43t50.5 -115z" />
    <glyph glyph-name="uni00B9" unicode="&#xb9;" horiz-adv-x="818" 
d="M143 580v93h231v676l-209 -131v95l218 141h101v-781h214v-93h-555z" />
    <glyph glyph-name="ordmasculine" unicode="&#xba;" horiz-adv-x="993" 
d="M884 1069q0 -89 -24.5 -163.5t-73.5 -129t-122.5 -84t-170.5 -29.5q-93 0 -164.5 29.5t-120 83t-73.5 128.5t-25 165q0 88 23.5 162t71.5 128t121 84t171 30q103 0 176.5 -30t120 -84t68.5 -128t22 -162zM762 1069q0 167 -67.5 241t-193.5 74q-129 0 -200 -75.5
t-71 -239.5q0 -83 19 -143t54 -99t83.5 -57t106.5 -18q127 0 198 75t71 242z" />
    <glyph glyph-name="guillemotright" unicode="&#xbb;" horiz-adv-x="1113" 
d="M676 146h-126v27l348 382l-346 387v28h124l348 -384v-62zM218 146h-129v27l351 382l-350 387v28h128l348 -384v-62z" />
    <glyph glyph-name="onequarter" unicode="&#xbc;" horiz-adv-x="1739" 
d="M130 580v93h231v676l-209 -131v95l218 141h101v-781h214v-93h-555zM558 0h-122l899 1454h121zM1535 205v-202h-110v202h-431v86l425 586h116v-579h133v-93h-133zM1430 759q-8 -10 -21.5 -30t-27.5 -42q-15 -22 -29.5 -42.5t-24.5 -34.5l-230 -312h328v314q0 18 0.5 39
t1.5 41t2 38q0 18 1 29z" />
    <glyph glyph-name="onehalf" unicode="&#xbd;" horiz-adv-x="1838" 
d="M130 580v93h231v676l-209 -131v95l218 141h101v-781h214v-93h-555zM558 0h-122l899 1454h121zM1170 3v88q26 62 70.5 112.5t96 93.5t104.5 83q53 39 96 79.5t70.5 85t27.5 98.5q0 71 -40 114.5t-123 43.5q-77 0 -125.5 -42t-56.5 -116l-110 5q7 53 29 97t59.5 76.5
t89.5 50.5t118 18q131 0 202 -64t71 -175q0 -63 -27.5 -116t-71 -99t-95.5 -87q-53 -41 -103 -81t-91 -80.5t-61 -85.5h461v-99h-591z" />
    <glyph glyph-name="threequarters" unicode="&#xbe;" horiz-adv-x="1751" 
d="M722 820q0 -120 -77 -185.5t-214 -65.5q-85 0 -142.5 19.5t-94.5 51t-54 72.5t-24 85l110 12q10 -75 59.5 -114.5t144.5 -39.5q86 0 133.5 41.5t47.5 127.5q0 51 -20.5 81t-52 47t-67.5 22.5t-67 5.5h-63v93h59q31 0 64 8t60.5 26.5t45 49t17.5 74.5q0 68 -41.5 107.5
t-119.5 39.5t-125 -41.5t-53 -112.5l-113 11q7 58 32 101.5t64 72.5t89 43.5t107 14.5q68 0 119 -17.5t85.5 -47t51 -71t16.5 -89.5q0 -76 -43 -132.5t-134 -76.5v-4q53 -5 91 -24t62 -47.5t35.5 -64t11.5 -73.5zM566 0h-122l899 1454h121zM1547 205v-202h-110v202h-431v86
l425 586h116v-579h133v-93h-133zM1442 759q-8 -10 -21.5 -30t-27.5 -42q-15 -22 -29.5 -42.5t-24.5 -34.5l-230 -312h328v314q0 18 0.5 39t1.5 41t2 38q0 18 1 29z" />
    <glyph glyph-name="questiondown" unicode="&#xbf;" horiz-adv-x="1178" 
d="M550 875v178h158v-178h-158zM575 -426q-113 0 -202 29t-151 82t-94.5 129t-32.5 169q0 96 34.5 161t86 113.5t112.5 86.5q60 38 111.5 80.5t87 96t35.5 132.5h137q-1 -92 -36 -155t-86 -110t-111 -86t-111 -82t-85 -97.5t-34 -132.5q0 -67 23.5 -121.5t66.5 -93t106 -59
t143 -20.5q73 0 136 23t110 64.5t77 97.5t36 122l147 -11q-12 -85 -50 -161t-101.5 -133t-152 -90.5t-202.5 -33.5z" />
    <glyph glyph-name="Agrave" unicode="&#xc0;" horiz-adv-x="1311" 
d="M1152 0l-172 450h-651l-170 -450h-155l565 1454h175l564 -1454h-156zM746 1081q-17 44 -33 88.5t-28.5 80t-19.5 58.5q-8 23 -10 26q-1 -5 -8.5 -29t-20 -59.5t-28 -78.5t-32.5 -86l-194 -511h568zM775 1580l-307 289v25h162l238 -294v-20h-93z" />
    <glyph glyph-name="Aacute" unicode="&#xc1;" horiz-adv-x="1311" 
d="M1152 0l-172 450h-651l-170 -450h-155l565 1454h175l564 -1454h-156zM746 1081q-17 44 -33 88.5t-28.5 80t-19.5 58.5q-8 23 -10 26q-1 -5 -8.5 -29t-20 -59.5t-28 -78.5t-32.5 -86l-194 -511h568zM527 1580v20l239 294h161v-25l-307 -289h-93z" />
    <glyph glyph-name="Acircumflex" unicode="&#xc2;" horiz-adv-x="1311" 
d="M1152 0l-172 450h-651l-170 -450h-155l565 1454h175l564 -1454h-156zM746 1081q-17 44 -33 88.5t-28.5 80t-19.5 58.5q-8 23 -10 26q-1 -5 -8.5 -29t-20 -59.5t-28 -78.5t-32.5 -86l-194 -511h568zM982 1595v-14h-83l-232 209h-5l-244 -209h-85v14l262 307h139z" />
    <glyph glyph-name="Atilde" unicode="&#xc3;" horiz-adv-x="1311" 
d="M1152 0l-172 450h-651l-170 -450h-155l565 1454h175l564 -1454h-156zM746 1081q-17 44 -33 88.5t-28.5 80t-19.5 58.5q-8 23 -10 26q-1 -5 -8.5 -29t-20 -59.5t-28 -78.5t-32.5 -86l-194 -511h568zM816 1581q-43 0 -85 21.5t-80 48.5q-39 26 -75 47t-69 21
q-29 0 -48.5 -11t-32.5 -29t-20.5 -43t-12.5 -55h-89q6 47 17.5 89.5t34 75.5t58 52t90.5 19q45 0 87 -20.5t81 -45.5q38 -25 73.5 -46.5t66.5 -21.5q30 0 49 10.5t32 28.5t20 42.5t12 52.5h91q-7 -45 -18.5 -87.5t-33.5 -75.5t-57.5 -53t-90.5 -20z" />
    <glyph glyph-name="Adieresis" unicode="&#xc4;" horiz-adv-x="1311" 
d="M1152 0l-172 450h-651l-170 -450h-155l565 1454h175l564 -1454h-156zM746 1081q-17 44 -33 88.5t-28.5 80t-19.5 58.5q-8 23 -10 26q-1 -5 -8.5 -29t-20 -59.5t-28 -78.5t-32.5 -86l-194 -511h568zM794 1580v174h125v-174h-125zM387 1580v174h125v-174h-125z" />
    <glyph glyph-name="Aring" unicode="&#xc5;" horiz-adv-x="1311" 
d="M899 1615q0 -73 -36.5 -130.5t-96.5 -87.5l542 -1397h-156l-172 450h-651l-170 -450h-155l543 1397q-59 30 -96 88t-37 130q0 50 19.5 94t52.5 77t76.5 52.5t94.5 19.5q50 0 94.5 -19.5t77.5 -52.5t51.5 -77t18.5 -94zM746 1081q-17 44 -33 88.5t-28.5 80t-19.5 58.5
q-8 23 -10 26q-1 -5 -8.5 -29t-20 -59.5t-28 -78.5t-32.5 -86l-194 -511h568zM818 1615q0 34 -13 62t-35 49.5t-51 33.5t-62 12t-62 -12t-51 -33.5t-34 -49.5t-12 -62q0 -33 12 -63t34 -52t51 -34t62 -12t62 12t51 34t35 52t13 63z" />
    <glyph glyph-name="AE" unicode="&#xc6;" horiz-adv-x="1920" 
d="M877 0v450h-508l-212 -450h-160l702 1454h1079v-123h-754v-523h690v-120h-690v-565h795v-123h-942zM877 1334h-90q-1 -1 -9 -20q-9 -20 -22 -48q-14 -28 -29 -60t-28 -60q-14 -29 -23 -49t-10 -24l-239 -503h450v764z" />
    <glyph glyph-name="Ccedilla" unicode="&#xc7;" horiz-adv-x="1482" 
d="M988 -268q0 -88 -63 -137t-208 -49q-22 0 -43 0.5t-46 3.5v89q26 -3 48 -5t41 -2q45 0 76 7.5t49 19.5t26 29t8 37q0 45 -31.5 68.5t-113.5 23.5q-15 0 -30.5 -1.5t-29.5 -3.5l63 170q-154 12 -267.5 72t-187.5 159t-110.5 232t-36.5 289q0 170 40.5 307.5t123 233.5
t205.5 148.5t290 52.5q125 0 218 -29t159.5 -77t111.5 -107t74 -120l-132 -50q-24 49 -60.5 95.5t-89 82.5t-122 58t-158.5 22q-133 0 -229 -44t-158.5 -124.5t-92 -195t-29.5 -253.5t32.5 -254.5t97 -199.5t162 -130.5t226.5 -46.5q93 0 167 27t130.5 70.5t96.5 97.5
t64 108l125 -58q-35 -68 -85 -133t-118.5 -116t-156 -82.5t-198.5 -35.5l-34 -91q96 -2 146 -43t50 -115z" />
    <glyph glyph-name="Egrave" unicode="&#xc8;" horiz-adv-x="1300" 
d="M199 0v1454h959v-123h-811v-523h748v-120h-748v-565h853v-123h-1001zM789 1580l-307 289v25h162l238 -294v-20h-93z" />
    <glyph glyph-name="Eacute" unicode="&#xc9;" horiz-adv-x="1300" 
d="M199 0v1454h959v-123h-811v-523h748v-120h-748v-565h853v-123h-1001zM512 1580v20l239 294h161v-25l-307 -289h-93z" />
    <glyph glyph-name="Ecircumflex" unicode="&#xca;" horiz-adv-x="1300" 
d="M199 0v1454h959v-123h-811v-523h748v-120h-748v-565h853v-123h-1001zM1014 1594v-14h-83l-232 209h-5l-244 -209h-85v14l262 307h139z" />
    <glyph glyph-name="Edieresis" unicode="&#xcb;" horiz-adv-x="1300" 
d="M199 0v1454h959v-123h-811v-523h748v-120h-748v-565h853v-123h-1001zM826 1580v174h125v-174h-125zM419 1580v174h125v-174h-125z" />
    <glyph glyph-name="Igrave" unicode="&#xcc;" horiz-adv-x="544" 
d="M199 0v1454h148v-1454h-148zM284 1581l-307 289v25h162l238 -294v-20h-93z" />
    <glyph glyph-name="Iacute" unicode="&#xcd;" horiz-adv-x="544" 
d="M199 0v1454h148v-1454h-148zM179 1580v20l239 294h161v-25l-307 -289h-93z" />
    <glyph glyph-name="Icircumflex" unicode="&#xce;" horiz-adv-x="544" 
d="M199 0v1454h148v-1454h-148zM599 1595v-14h-83l-232 209h-5l-244 -209h-85v14l262 307h139z" />
    <glyph glyph-name="Idieresis" unicode="&#xcf;" horiz-adv-x="544" 
d="M199 0v1454h148v-1454h-148zM418 1580v174h125v-174h-125zM11 1580v174h125v-174h-125z" />
    <glyph glyph-name="Eth" unicode="&#xd0;" horiz-adv-x="1566" 
d="M1433 742q0 -182 -54 -320t-149.5 -232.5t-224 -142t-277.5 -47.5h-529v662h-186v120h186v672h464q169 0 310.5 -41.5t244 -128.5t159 -221.5t56.5 -320.5zM1282 742q0 157 -45.5 268.5t-128 182.5t-197.5 103.5t-253 32.5h-311v-547h399v-120h-399v-537h359
q125 0 230.5 39.5t182.5 117t120 193t43 267.5z" />
    <glyph glyph-name="Ntilde" unicode="&#xd1;" horiz-adv-x="1650" 
d="M1277 0l-949 1277q2 -44 4 -90q1 -40 1.5 -86t0.5 -87v-1014h-135v1454h169l957 -1285q-1 43 -4 89q-3 40 -3.5 90.5t-0.5 102.5v1003h136v-1454h-176zM983 1580q-43 0 -85 21.5t-80 48.5q-39 26 -75 47t-69 21q-29 0 -48.5 -11t-32.5 -29t-20.5 -43t-12.5 -55h-89
q6 47 17.5 89.5t34 75.5t58 52t90.5 19q45 0 87 -20.5t81 -45.5q38 -25 73.5 -46.5t66.5 -21.5q30 0 49 10.5t32 28.5t20 42.5t12 52.5h91q-7 -45 -18.5 -87.5t-33.5 -75.5t-57.5 -53t-90.5 -20z" />
    <glyph glyph-name="Ograve" unicode="&#xd2;" horiz-adv-x="1633" 
d="M1503 734q0 -170 -47 -309.5t-135.5 -238t-215.5 -153t-288 -54.5q-171 0 -299 56.5t-214 157t-129 239t-43 302.5q0 170 45 307.5t132 233.5t214.5 148.5t293.5 52.5q165 0 293 -53t215.5 -150t132.5 -233.5t45 -305.5zM1349 734q0 139 -34 253.5t-101.5 195t-167 124.5
t-229.5 44q-133 0 -233 -44t-167 -124.5t-100.5 -195t-33.5 -253.5t34.5 -254.5t102.5 -199.5t167 -130.5t230 -46.5q138 0 238.5 47t165.5 131t96.5 200t31.5 253zM892 1577l-307 289v25h162l238 -294v-20h-93z" />
    <glyph glyph-name="Oacute" unicode="&#xd3;" horiz-adv-x="1633" 
d="M1503 734q0 -170 -47 -309.5t-135.5 -238t-215.5 -153t-288 -54.5q-171 0 -299 56.5t-214 157t-129 239t-43 302.5q0 170 45 307.5t132 233.5t214.5 148.5t293.5 52.5q165 0 293 -53t215.5 -150t132.5 -233.5t45 -305.5zM1349 734q0 139 -34 253.5t-101.5 195t-167 124.5
t-229.5 44q-133 0 -233 -44t-167 -124.5t-100.5 -195t-33.5 -253.5t34.5 -254.5t102.5 -199.5t167 -130.5t230 -46.5q138 0 238.5 47t165.5 131t96.5 200t31.5 253zM696 1579v20l239 294h161v-25l-307 -289h-93z" />
    <glyph glyph-name="Ocircumflex" unicode="&#xd4;" horiz-adv-x="1633" 
d="M1503 734q0 -170 -47 -309.5t-135.5 -238t-215.5 -153t-288 -54.5q-171 0 -299 56.5t-214 157t-129 239t-43 302.5q0 170 45 307.5t132 233.5t214.5 148.5t293.5 52.5q165 0 293 -53t215.5 -150t132.5 -233.5t45 -305.5zM1349 734q0 139 -34 253.5t-101.5 195t-167 124.5
t-229.5 44q-133 0 -233 -44t-167 -124.5t-100.5 -195t-33.5 -253.5t34.5 -254.5t102.5 -199.5t167 -130.5t230 -46.5q138 0 238.5 47t165.5 131t96.5 200t31.5 253zM1146 1593v-14h-83l-232 209h-5l-244 -209h-85v14l262 307h139z" />
    <glyph glyph-name="Otilde" unicode="&#xd5;" horiz-adv-x="1633" 
d="M1503 734q0 -170 -47 -309.5t-135.5 -238t-215.5 -153t-288 -54.5q-171 0 -299 56.5t-214 157t-129 239t-43 302.5q0 170 45 307.5t132 233.5t214.5 148.5t293.5 52.5q165 0 293 -53t215.5 -150t132.5 -233.5t45 -305.5zM1349 734q0 139 -34 253.5t-101.5 195t-167 124.5
t-229.5 44q-133 0 -233 -44t-167 -124.5t-100.5 -195t-33.5 -253.5t34.5 -254.5t102.5 -199.5t167 -130.5t230 -46.5q138 0 238.5 47t165.5 131t96.5 200t31.5 253zM981 1580q-43 0 -85 21.5t-80 48.5q-39 26 -75 47t-69 21q-29 0 -48.5 -11t-32.5 -29t-20.5 -43t-12.5 -55
h-89q6 47 17.5 89.5t34 75.5t58 52t90.5 19q45 0 87 -20.5t81 -45.5q38 -25 73.5 -46.5t66.5 -21.5q30 0 49 10.5t32 28.5t20 42.5t12 52.5h91q-7 -45 -18.5 -87.5t-33.5 -75.5t-57.5 -53t-90.5 -20z" />
    <glyph glyph-name="Odieresis" unicode="&#xd6;" horiz-adv-x="1633" 
d="M1503 734q0 -170 -47 -309.5t-135.5 -238t-215.5 -153t-288 -54.5q-171 0 -299 56.5t-214 157t-129 239t-43 302.5q0 170 45 307.5t132 233.5t214.5 148.5t293.5 52.5q165 0 293 -53t215.5 -150t132.5 -233.5t45 -305.5zM1349 734q0 139 -34 253.5t-101.5 195t-167 124.5
t-229.5 44q-133 0 -233 -44t-167 -124.5t-100.5 -195t-33.5 -253.5t34.5 -254.5t102.5 -199.5t167 -130.5t230 -46.5q138 0 238.5 47t165.5 131t96.5 200t31.5 253zM955 1580v174h125v-174h-125zM548 1580v174h125v-174h-125z" />
    <glyph glyph-name="multiply" unicode="&#xd7;" horiz-adv-x="1138" 
d="M123 341l363 365l-361 363l80 80l364 -361l359 358l82 -83l-359 -357l363 -363l-80 -82l-364 362l-365 -362z" />
    <glyph glyph-name="Oslash" unicode="&#xd8;" horiz-adv-x="1633" 
d="M290 209q-80 101 -119 233.5t-39 291.5q0 170 45 307.5t132 233.5t214.5 148.5t293.5 52.5q138 0 249.5 -37t196.5 -106l124 144l84 -73l-129 -150q80 -97 120.5 -228t40.5 -292q0 -170 -47 -309.5t-135.5 -238t-215.5 -153t-288 -54.5q-144 0 -255.5 39t-195.5 111
l-129 -150l-82 74zM1349 734q0 249 -105 408l-785 -906q66 -64 155 -98.5t203 -34.5q138 0 238.5 47t165.5 131t96.5 200t31.5 253zM283 734q0 -123 26 -226.5t79 -185.5l782 905q-66 59 -154 91.5t-199 32.5q-133 0 -233 -44t-167 -124.5t-100.5 -195t-33.5 -253.5z" />
    <glyph glyph-name="Ugrave" unicode="&#xd9;" horiz-adv-x="1533" 
d="M751 -21q-118 0 -221 32t-178.5 98t-119.5 168t-44 243v934h149v-920q0 -113 32.5 -194.5t89.5 -133.5t133 -77.5t163 -25.5q85 0 164 26.5t140.5 80.5t99 138t37.5 199v907h148v-913q0 -144 -46.5 -249.5t-126.5 -174.5t-188 -103.5t-232 -34.5zM832 1577l-307 289v25
h162l238 -294v-20h-93z" />
    <glyph glyph-name="Uacute" unicode="&#xda;" horiz-adv-x="1533" 
d="M751 -21q-118 0 -221 32t-178.5 98t-119.5 168t-44 243v934h149v-920q0 -113 32.5 -194.5t89.5 -133.5t133 -77.5t163 -25.5q85 0 164 26.5t140.5 80.5t99 138t37.5 199v907h148v-913q0 -144 -46.5 -249.5t-126.5 -174.5t-188 -103.5t-232 -34.5zM581 1576v20l239 294
h161v-25l-307 -289h-93z" />
    <glyph glyph-name="Ucircumflex" unicode="&#xdb;" horiz-adv-x="1533" 
d="M751 -21q-118 0 -221 32t-178.5 98t-119.5 168t-44 243v934h149v-920q0 -113 32.5 -194.5t89.5 -133.5t133 -77.5t163 -25.5q85 0 164 26.5t140.5 80.5t99 138t37.5 199v907h148v-913q0 -144 -46.5 -249.5t-126.5 -174.5t-188 -103.5t-232 -34.5zM1085 1591v-14h-83
l-232 209h-5l-244 -209h-85v14l262 307h139z" />
    <glyph glyph-name="Udieresis" unicode="&#xdc;" horiz-adv-x="1533" 
d="M751 -21q-118 0 -221 32t-178.5 98t-119.5 168t-44 243v934h149v-920q0 -113 32.5 -194.5t89.5 -133.5t133 -77.5t163 -25.5q85 0 164 26.5t140.5 80.5t99 138t37.5 199v907h148v-913q0 -144 -46.5 -249.5t-126.5 -174.5t-188 -103.5t-232 -34.5zM900 1580v174h125v-174
h-125zM493 1580v174h125v-174h-125z" />
    <glyph glyph-name="Yacute" unicode="&#xdd;" horiz-adv-x="1214" 
d="M680 637v-637h-147v637l-523 817h163l433 -692l434 692h162zM445 1580v20l239 294h161v-25l-307 -289h-93z" />
    <glyph glyph-name="Thorn" unicode="&#xde;" horiz-adv-x="1331" 
d="M1218 756q0 -89 -30.5 -169.5t-91.5 -141.5t-153.5 -97t-214.5 -36h-381v-312h-148v1454h148v-268h368q125 0 219 -31t157.5 -87.5t95 -135.5t31.5 -176zM1067 755q0 148 -92.5 230t-276.5 82h-351v-637h359q93 0 161 24.5t112.5 68t66 103t21.5 129.5z" />
    <glyph glyph-name="germandbls" unicode="&#xdf;" horiz-adv-x="1231" 
d="M1146 264q0 -77 -26 -133t-70.5 -91.5t-104.5 -52.5t-128 -17q-158 0 -274 55v122q54 -33 124.5 -54t142.5 -21q97 0 148.5 45.5t51.5 137.5q0 61 -28.5 105.5t-71.5 80t-93 68.5q-51 32 -94 70t-71.5 85t-28.5 113q0 50 20.5 86.5t52.5 65.5t69 55q36 26 67.5 56.5
t52.5 68t21 89.5q0 43 -19 78t-53.5 60.5t-85 40t-115.5 14.5q-71 0 -129.5 -19t-100.5 -61t-65 -109.5t-23 -165.5v-1036h-142v1036q0 120 34 207.5t95.5 145t147 84.5t187.5 27q94 0 169 -22t127.5 -61t80.5 -93.5t28 -117.5q0 -60 -21 -106t-53.5 -82t-68.5 -65
q-37 -29 -69.5 -55.5t-53.5 -53.5t-21 -61q0 -49 29 -86t72 -69t94 -65q51 -34 94 -75.5t72.5 -95t29.5 -128.5z" />
    <glyph glyph-name="agrave" unicode="&#xe0;" horiz-adv-x="1225" 
d="M1082 -10q-51 0 -86.5 14.5t-57.5 43.5t-33 72.5t-14 98.5h-3q-60 -108 -164.5 -174t-250.5 -66q-82 0 -148.5 20t-113 59t-71 94.5t-24.5 126.5q0 94 40.5 159t109.5 105.5t160 60t193 20.5l269 4v57q0 150 -73 215t-210 65q-66 0 -117.5 -11t-89 -35.5t-60 -64
t-30.5 -95.5l-145 15q10 64 41.5 119t85.5 94.5t133 61.5t183 22q207 0 315 -96.5t108 -279.5v-431q0 -86 21.5 -130t82.5 -44q15 0 34 4t33 7v-97q-29 -8 -59 -11t-59 -3zM888 529l-240 -7q-78 -1 -148 -12t-123 -37.5t-84 -72t-31 -115.5q0 -89 55 -139.5t174 -50.5
q92 0 165.5 32t125 81.5t79 111t27.5 120.5v89zM672 1175l-307 289v25h162l238 -294v-20h-93z" />
    <glyph glyph-name="aacute" unicode="&#xe1;" horiz-adv-x="1225" 
d="M1082 -10q-51 0 -86.5 14.5t-57.5 43.5t-33 72.5t-14 98.5h-3q-60 -108 -164.5 -174t-250.5 -66q-82 0 -148.5 20t-113 59t-71 94.5t-24.5 126.5q0 94 40.5 159t109.5 105.5t160 60t193 20.5l269 4v57q0 150 -73 215t-210 65q-66 0 -117.5 -11t-89 -35.5t-60 -64
t-30.5 -95.5l-145 15q10 64 41.5 119t85.5 94.5t133 61.5t183 22q207 0 315 -96.5t108 -279.5v-431q0 -86 21.5 -130t82.5 -44q15 0 34 4t33 7v-97q-29 -8 -59 -11t-59 -3zM888 529l-240 -7q-78 -1 -148 -12t-123 -37.5t-84 -72t-31 -115.5q0 -89 55 -139.5t174 -50.5
q92 0 165.5 32t125 81.5t79 111t27.5 120.5v89zM447 1175v20l239 294h161v-25l-307 -289h-93z" />
    <glyph glyph-name="acircumflex" unicode="&#xe2;" horiz-adv-x="1225" 
d="M1082 -10q-51 0 -86.5 14.5t-57.5 43.5t-33 72.5t-14 98.5h-3q-60 -108 -164.5 -174t-250.5 -66q-82 0 -148.5 20t-113 59t-71 94.5t-24.5 126.5q0 94 40.5 159t109.5 105.5t160 60t193 20.5l269 4v57q0 150 -73 215t-210 65q-66 0 -117.5 -11t-89 -35.5t-60 -64
t-30.5 -95.5l-145 15q10 64 41.5 119t85.5 94.5t133 61.5t183 22q207 0 315 -96.5t108 -279.5v-431q0 -86 21.5 -130t82.5 -44q15 0 34 4t33 7v-97q-29 -8 -59 -11t-59 -3zM888 529l-240 -7q-78 -1 -148 -12t-123 -37.5t-84 -72t-31 -115.5q0 -89 55 -139.5t174 -50.5
q92 0 165.5 32t125 81.5t79 111t27.5 120.5v89zM944 1189v-14h-83l-232 209h-5l-244 -209h-85v14l262 307h139z" />
    <glyph glyph-name="atilde" unicode="&#xe3;" horiz-adv-x="1225" 
d="M1082 -10q-51 0 -86.5 14.5t-57.5 43.5t-33 72.5t-14 98.5h-3q-60 -108 -164.5 -174t-250.5 -66q-82 0 -148.5 20t-113 59t-71 94.5t-24.5 126.5q0 94 40.5 159t109.5 105.5t160 60t193 20.5l269 4v57q0 150 -73 215t-210 65q-66 0 -117.5 -11t-89 -35.5t-60 -64
t-30.5 -95.5l-145 15q10 64 41.5 119t85.5 94.5t133 61.5t183 22q207 0 315 -96.5t108 -279.5v-431q0 -86 21.5 -130t82.5 -44q15 0 34 4t33 7v-97q-29 -8 -59 -11t-59 -3zM888 529l-240 -7q-78 -1 -148 -12t-123 -37.5t-84 -72t-31 -115.5q0 -89 55 -139.5t174 -50.5
q92 0 165.5 32t125 81.5t79 111t27.5 120.5v89zM773 1171q-43 0 -85 21.5t-80 48.5q-39 26 -75 47t-69 21q-29 0 -48.5 -11t-32.5 -29t-20.5 -43t-12.5 -55h-89q6 47 17.5 89.5t34 75.5t58 52t90.5 19q45 0 87 -20.5t81 -45.5q38 -25 73.5 -46.5t66.5 -21.5q30 0 49 10.5
t32 28.5t20 42.5t12 52.5h91q-7 -45 -18.5 -87.5t-33.5 -75.5t-57.5 -53t-90.5 -20z" />
    <glyph glyph-name="adieresis" unicode="&#xe4;" horiz-adv-x="1225" 
d="M1082 -10q-51 0 -86.5 14.5t-57.5 43.5t-33 72.5t-14 98.5h-3q-60 -108 -164.5 -174t-250.5 -66q-82 0 -148.5 20t-113 59t-71 94.5t-24.5 126.5q0 94 40.5 159t109.5 105.5t160 60t193 20.5l269 4v57q0 150 -73 215t-210 65q-66 0 -117.5 -11t-89 -35.5t-60 -64
t-30.5 -95.5l-145 15q10 64 41.5 119t85.5 94.5t133 61.5t183 22q207 0 315 -96.5t108 -279.5v-431q0 -86 21.5 -130t82.5 -44q15 0 34 4t33 7v-97q-29 -8 -59 -11t-59 -3zM888 529l-240 -7q-78 -1 -148 -12t-123 -37.5t-84 -72t-31 -115.5q0 -89 55 -139.5t174 -50.5
q92 0 165.5 32t125 81.5t79 111t27.5 120.5v89zM759 1196v174h125v-174h-125zM352 1196v174h125v-174h-125z" />
    <glyph glyph-name="aring" unicode="&#xe5;" horiz-adv-x="1225" 
d="M1082 -10q-51 0 -86.5 14.5t-57.5 43.5t-33 72.5t-14 98.5h-3q-60 -108 -164.5 -174t-250.5 -66q-82 0 -148.5 20t-113 59t-71 94.5t-24.5 126.5q0 94 40.5 159t109.5 105.5t160 60t193 20.5l269 4v57q0 150 -73 215t-210 65q-66 0 -117.5 -11t-89 -35.5t-60 -64
t-30.5 -95.5l-145 15q10 64 41.5 119t85.5 94.5t133 61.5t183 22q207 0 315 -96.5t108 -279.5v-431q0 -86 21.5 -130t82.5 -44q15 0 34 4t33 7v-97q-29 -8 -59 -11t-59 -3zM888 529l-240 -7q-78 -1 -148 -12t-123 -37.5t-84 -72t-31 -115.5q0 -89 55 -139.5t174 -50.5
q92 0 165.5 32t125 81.5t79 111t27.5 120.5v89zM866 1393q0 -50 -18.5 -94.5t-51.5 -77.5t-77.5 -52.5t-94.5 -19.5t-94 19.5t-77 52.5t-52.5 77.5t-19.5 94.5q0 51 19.5 94.5t52.5 76.5t77 52.5t94 19.5t94.5 -19.5t77.5 -52.5t51.5 -76.5t18.5 -94.5zM785 1393
q0 34 -13 62t-35 49.5t-51 34t-62 12.5q-32 0 -61 -12.5t-51 -34t-34.5 -49.5t-12.5 -62q0 -33 12.5 -63t34.5 -52t51 -34t61 -12q33 0 62 12t51 34t35 52t13 63z" />
    <glyph glyph-name="ae" unicode="&#xe6;" horiz-adv-x="1974" 
d="M1031 503q0 -86 21 -163.5t65.5 -135t114.5 -91t165 -33.5q123 0 205.5 56t115.5 145l133 -23q-18 -44 -49.5 -93.5t-85 -90t-131.5 -68t-188 -27.5q-157 0 -274 72.5t-171 212.5q-76 -143 -191.5 -214t-278.5 -71q-83 0 -151 20t-115.5 59t-73.5 94.5t-26 126.5
q0 94 40.5 157t109.5 101t160 55.5t193 18.5l269 4v69q0 148 -73 221t-210 73q-133 0 -207 -52.5t-90 -166.5l-145 15q10 64 40 119t84.5 94.5t132.5 61.5t182 22q149 0 244.5 -56.5t131.5 -165.5q33 60 79 102t100 68.5t114 39t120 12.5q125 0 214.5 -40t147.5 -112.5
t85 -171.5t27 -218v-26h-834zM1385 973q-67 0 -128.5 -21t-110 -65.5t-79 -115.5t-34.5 -170h693q-5 84 -27.5 152.5t-64 117.5t-102.5 75.5t-147 26.5zM888 529l-240 -7q-78 -1 -148 -12t-123 -37.5t-84 -72t-31 -115.5q0 -44 16 -81.5t47.5 -64.5t78 -41.5t106.5 -14.5
q91 0 162 32.5t118.5 84.5t72.5 114.5t25 121.5v93z" />
    <glyph glyph-name="ccedilla" unicode="&#xe7;" horiz-adv-x="1164" 
d="M1060 303q-13 -60 -43.5 -115.5t-81 -99.5t-119.5 -72t-158 -34l-34 -92q96 -2 146 -43t50 -115q0 -88 -63 -137t-207 -49q-22 0 -43.5 0.5t-45.5 3.5v89q25 -3 47 -5t42 -2q45 0 76 7.5t49 19.5t25.5 29t7.5 37q0 45 -31.5 68.5t-112.5 23.5q-16 0 -31.5 -1.5
t-29.5 -3.5l62 170q-115 6 -200.5 49t-142.5 113.5t-84.5 166t-27.5 208.5q0 129 34 231.5t99 173.5t158.5 109t213.5 38q98 0 175 -24.5t132 -67t89.5 -100t47.5 -123.5l-143 -14q-19 96 -94.5 159t-210.5 63q-87 0 -154 -30t-113 -86t-69 -136t-23 -182q0 -217 95 -329
t266 -112q136 0 213 64.5t99 174.5z" />
    <glyph glyph-name="egrave" unicode="&#xe8;" horiz-adv-x="1200" 
d="M255 497q0 -87 21.5 -162.5t66.5 -130t114 -86.5t165 -32q122 0 205.5 53t116.5 142l132 -23q-17 -44 -50 -93.5t-87 -90t-132.5 -68t-189.5 -27.5q-116 0 -210 35.5t-159.5 106t-101.5 173.5t-36 239q0 151 43.5 254t114.5 166.5t161.5 90.5t183.5 27q125 0 216 -40
t149.5 -112.5t86.5 -171.5t28 -218v-32h-838zM613 964q-67 0 -129.5 -19.5t-111 -63t-79.5 -112.5t-35 -168h695q-6 84 -28.5 151t-64 114t-102.5 72.5t-145 25.5zM674 1175l-307 289v25h162l238 -294v-20h-93z" />
    <glyph glyph-name="eacute" unicode="&#xe9;" horiz-adv-x="1200" 
d="M255 497q0 -87 21.5 -162.5t66.5 -130t114 -86.5t165 -32q122 0 205.5 53t116.5 142l132 -23q-17 -44 -50 -93.5t-87 -90t-132.5 -68t-189.5 -27.5q-116 0 -210 35.5t-159.5 106t-101.5 173.5t-36 239q0 151 43.5 254t114.5 166.5t161.5 90.5t183.5 27q125 0 216 -40
t149.5 -112.5t86.5 -171.5t28 -218v-32h-838zM613 964q-67 0 -129.5 -19.5t-111 -63t-79.5 -112.5t-35 -168h695q-6 84 -28.5 151t-64 114t-102.5 72.5t-145 25.5zM458 1175v20l239 294h161v-25l-307 -289h-93z" />
    <glyph glyph-name="ecircumflex" unicode="&#xea;" horiz-adv-x="1200" 
d="M255 497q0 -87 21.5 -162.5t66.5 -130t114 -86.5t165 -32q122 0 205.5 53t116.5 142l132 -23q-17 -44 -50 -93.5t-87 -90t-132.5 -68t-189.5 -27.5q-116 0 -210 35.5t-159.5 106t-101.5 173.5t-36 239q0 151 43.5 254t114.5 166.5t161.5 90.5t183.5 27q125 0 216 -40
t149.5 -112.5t86.5 -171.5t28 -218v-32h-838zM613 964q-67 0 -129.5 -19.5t-111 -63t-79.5 -112.5t-35 -168h695q-6 84 -28.5 151t-64 114t-102.5 72.5t-145 25.5zM934 1177v-14h-83l-232 209h-5l-244 -209h-85v14l262 307h139z" />
    <glyph glyph-name="edieresis" unicode="&#xeb;" horiz-adv-x="1200" 
d="M255 497q0 -87 21.5 -162.5t66.5 -130t114 -86.5t165 -32q122 0 205.5 53t116.5 142l132 -23q-17 -44 -50 -93.5t-87 -90t-132.5 -68t-189.5 -27.5q-116 0 -210 35.5t-159.5 106t-101.5 173.5t-36 239q0 151 43.5 254t114.5 166.5t161.5 90.5t183.5 27q125 0 216 -40
t149.5 -112.5t86.5 -171.5t28 -218v-32h-838zM613 964q-67 0 -129.5 -19.5t-111 -63t-79.5 -112.5t-35 -168h695q-6 84 -28.5 151t-64 114t-102.5 72.5t-145 25.5zM756 1196v174h125v-174h-125zM349 1196v174h125v-174h-125z" />
    <glyph glyph-name="igrave" unicode="&#xec;" horiz-adv-x="488" 
d="M173 0v1053h142v-1053h-142zM292 1175l-307 289v25h162l238 -294v-20h-93z" />
    <glyph glyph-name="iacute" unicode="&#xed;" horiz-adv-x="488" 
d="M101 1175v20l239 294h161v-25l-307 -289h-93zM173 0v1053h142v-1053h-142z" />
    <glyph glyph-name="icircumflex" unicode="&#xee;" horiz-adv-x="488" 
d="M173 0v1053h142v-1053h-142zM571 1189v-14h-83l-232 209h-5l-244 -209h-85v14l262 307h139z" />
    <glyph glyph-name="idieresis" unicode="&#xef;" horiz-adv-x="488" 
d="M173 0v1053h142v-1053h-142zM391 1196v174h125v-174h-125zM-16 1196v174h125v-174h-125z" />
    <glyph glyph-name="eth" unicode="&#xf0;" horiz-adv-x="1256" 
d="M622 -21q-124 0 -220 38t-160.5 106.5t-98 164t-33.5 209.5q0 111 31.5 205t95.5 163t161 108.5t229 39.5q84 0 151 -19t116 -52q-50 94 -113.5 178t-148.5 161l-264 -119l-35 84l223 101q-54 42 -113.5 81t-125.5 72h173q92 -40 178 -107l262 116l36 -82l-218 -98
q88 -79 160 -170.5t124.5 -194t82 -214t31.5 -230.5v-4q0 -117 -33 -216t-99 -170.5t-164 -111t-228 -39.5zM998 497q0 209 -92.5 307t-273.5 98q-183 0 -280 -101t-97 -304q0 -105 26.5 -181.5t75 -127t115 -75t147.5 -24.5q181 0 280 99.5t99 308.5z" />
    <glyph glyph-name="ntilde" unicode="&#xf1;" horiz-adv-x="1251" 
d="M947 0v617q0 74 -15.5 137.5t-50.5 110t-91 72t-137 25.5q-74 0 -136 -29t-107 -79t-70 -118t-25 -146v-590h-142v817q0 34 -0.5 73.5t-1.5 73.5t-1.5 58.5t-0.5 30.5h129q0 -4 2 -32q1 -29 2.5 -64.5l3 -71t1.5 -54.5h4q66 122 161.5 181t229.5 59q107 0 180.5 -33.5
t118.5 -91t65 -134.5t20 -163v-649h-139zM803 1175q-43 0 -85 21.5t-80 48.5q-39 26 -75 47t-69 21q-29 0 -48.5 -11t-32.5 -29t-20.5 -43t-12.5 -55h-89q6 47 17.5 89.5t34 75.5t58 52t90.5 19q45 0 87 -20.5t81 -45.5q38 -25 73.5 -46.5t66.5 -21.5q30 0 49 10.5t32 28.5
t20 42.5t12 52.5h91q-7 -45 -18.5 -87.5t-33.5 -75.5t-57.5 -53t-90.5 -20z" />
    <glyph glyph-name="ograve" unicode="&#xf2;" horiz-adv-x="1253" 
d="M1146 526q0 -120 -33 -220t-99 -172.5t-164 -113.5t-228 -41q-124 0 -220 40t-160.5 113t-98 173.5t-33.5 220.5q0 118 31.5 217t95.5 172t161 114.5t229 41.5q139 0 238 -41t160.5 -113.5t91 -172t29.5 -218.5zM998 526q0 225 -92.5 331.5t-273.5 106.5
q-182 0 -279.5 -109t-97.5 -329q0 -112 26.5 -194t75 -136t115 -80.5t147.5 -26.5q181 0 280 106t99 331zM730 1175l-307 289v25h162l238 -294v-20h-93z" />
    <glyph glyph-name="oacute" unicode="&#xf3;" horiz-adv-x="1253" 
d="M1146 526q0 -120 -33 -220t-99 -172.5t-164 -113.5t-228 -41q-124 0 -220 40t-160.5 113t-98 173.5t-33.5 220.5q0 118 31.5 217t95.5 172t161 114.5t229 41.5q139 0 238 -41t160.5 -113.5t91 -172t29.5 -218.5zM998 526q0 225 -92.5 331.5t-273.5 106.5
q-182 0 -279.5 -109t-97.5 -329q0 -112 26.5 -194t75 -136t115 -80.5t147.5 -26.5q181 0 280 106t99 331zM478 1175v20l239 294h161v-25l-307 -289h-93z" />
    <glyph glyph-name="ocircumflex" unicode="&#xf4;" horiz-adv-x="1253" 
d="M1146 526q0 -120 -33 -220t-99 -172.5t-164 -113.5t-228 -41q-124 0 -220 40t-160.5 113t-98 173.5t-33.5 220.5q0 118 31.5 217t95.5 172t161 114.5t229 41.5q139 0 238 -41t160.5 -113.5t91 -172t29.5 -218.5zM998 526q0 225 -92.5 331.5t-273.5 106.5
q-182 0 -279.5 -109t-97.5 -329q0 -112 26.5 -194t75 -136t115 -80.5t147.5 -26.5q181 0 280 106t99 331zM959 1189v-14h-83l-232 209h-5l-244 -209h-85v14l262 307h139z" />
    <glyph glyph-name="otilde" unicode="&#xf5;" horiz-adv-x="1253" 
d="M1146 526q0 -120 -33 -220t-99 -172.5t-164 -113.5t-228 -41q-124 0 -220 40t-160.5 113t-98 173.5t-33.5 220.5q0 118 31.5 217t95.5 172t161 114.5t229 41.5q139 0 238 -41t160.5 -113.5t91 -172t29.5 -218.5zM998 526q0 225 -92.5 331.5t-273.5 106.5
q-182 0 -279.5 -109t-97.5 -329q0 -112 26.5 -194t75 -136t115 -80.5t147.5 -26.5q181 0 280 106t99 331zM791 1175q-43 0 -85 21.5t-80 48.5q-39 26 -75 47t-69 21q-29 0 -48.5 -11t-32.5 -29t-20.5 -43t-12.5 -55h-89q6 47 17.5 89.5t34 75.5t58 52t90.5 19q45 0 87 -20.5
t81 -45.5q38 -25 73.5 -46.5t66.5 -21.5q30 0 49 10.5t32 28.5t20 42.5t12 52.5h91q-7 -45 -18.5 -87.5t-33.5 -75.5t-57.5 -53t-90.5 -20z" />
    <glyph glyph-name="odieresis" unicode="&#xf6;" horiz-adv-x="1253" 
d="M1146 526q0 -120 -33 -220t-99 -172.5t-164 -113.5t-228 -41q-124 0 -220 40t-160.5 113t-98 173.5t-33.5 220.5q0 118 31.5 217t95.5 172t161 114.5t229 41.5q139 0 238 -41t160.5 -113.5t91 -172t29.5 -218.5zM998 526q0 225 -92.5 331.5t-273.5 106.5
q-182 0 -279.5 -109t-97.5 -329q0 -112 26.5 -194t75 -136t115 -80.5t147.5 -26.5q181 0 280 106t99 331zM776 1196v174h125v-174h-125zM369 1196v174h125v-174h-125z" />
    <glyph glyph-name="divide" unicode="&#xf7;" horiz-adv-x="1142" 
d="M498 987v165h143v-165h-143zM72 645v116h995v-116h-995zM498 255v164h143v-164h-143z" />
    <glyph glyph-name="oslash" unicode="&#xf8;" horiz-adv-x="1253" 
d="M1146 526q0 -120 -33 -220.5t-99 -173.5t-164 -113t-228 -40q-100 0 -180.5 26.5t-140.5 74.5l-108 -123l-67 60l106 125q-60 71 -91 168.5t-31 215.5t31.5 217t95.5 172t161 114.5t229 41.5q209 0 330 -94l100 116l68 -60l-101 -116q62 -73 92 -172t30 -219zM632 964
q-182 0 -279.5 -109t-97.5 -329q0 -91 19.5 -160t54.5 -118l544 640q-91 76 -241 76zM998 526q0 186 -72 285l-543 -639q45 -43 104.5 -63t131.5 -20q181 0 280 106t99 331z" />
    <glyph glyph-name="ugrave" unicode="&#xf9;" horiz-adv-x="1251" 
d="M956 0q-1 4 -3 31.5t-4 63t-3.5 72t-1.5 55.5h-4q-65 -125 -160.5 -184t-229.5 -59q-108 0 -181.5 33.5t-118.5 92t-65 135.5t-20 164v649h139v-620q0 -73 15.5 -136.5t50.5 -109t91 -71.5t138 -26q72 0 134 28.5t107 79t71 118.5t26 147v590h140v-817q0 -35 0.5 -75
t2.5 -74q1 -34 1.5 -58.5t0.5 -28.5h-126zM713 1175l-307 289v25h162l238 -294v-20h-93z" />
    <glyph glyph-name="uacute" unicode="&#xfa;" horiz-adv-x="1251" 
d="M956 0q-1 4 -3 31.5t-4 63t-3.5 72t-1.5 55.5h-4q-65 -125 -160.5 -184t-229.5 -59q-108 0 -181.5 33.5t-118.5 92t-65 135.5t-20 164v649h139v-620q0 -73 15.5 -136.5t50.5 -109t91 -71.5t138 -26q72 0 134 28.5t107 79t71 118.5t26 147v590h140v-817q0 -35 0.5 -75
t2.5 -74q1 -34 1.5 -58.5t0.5 -28.5h-126zM445 1175v20l239 294h161v-25l-307 -289h-93z" />
    <glyph glyph-name="ucircumflex" unicode="&#xfb;" horiz-adv-x="1251" 
d="M956 0q-1 4 -3 31.5t-4 63t-3.5 72t-1.5 55.5h-4q-65 -125 -160.5 -184t-229.5 -59q-108 0 -181.5 33.5t-118.5 92t-65 135.5t-20 164v649h139v-620q0 -73 15.5 -136.5t50.5 -109t91 -71.5t138 -26q72 0 134 28.5t107 79t71 118.5t26 147v590h140v-817q0 -35 0.5 -75
t2.5 -74q1 -34 1.5 -58.5t0.5 -28.5h-126zM946 1189v-14h-83l-232 209h-5l-244 -209h-85v14l262 307h139z" />
    <glyph glyph-name="udieresis" unicode="&#xfc;" horiz-adv-x="1251" 
d="M956 0q-1 4 -3 31.5t-4 63t-3.5 72t-1.5 55.5h-4q-65 -125 -160.5 -184t-229.5 -59q-108 0 -181.5 33.5t-118.5 92t-65 135.5t-20 164v649h139v-620q0 -73 15.5 -136.5t50.5 -109t91 -71.5t138 -26q72 0 134 28.5t107 79t71 118.5t26 147v590h140v-817q0 -35 0.5 -75
t2.5 -74q1 -34 1.5 -58.5t0.5 -28.5h-126zM769 1196v174h125v-174h-125zM362 1196v174h125v-174h-125z" />
    <glyph glyph-name="yacute" unicode="&#xfd;" horiz-adv-x="1038" 
d="M560 -83q-39 -99 -76.5 -172t-78 -120.5t-86.5 -71t-100 -23.5q-73 0 -122 9v113q18 -4 40.5 -6.5t40.5 -2.5q80 0 138.5 79t113.5 225l18 53l-420 1053h150l219 -590q2 -2 11.5 -27.5t22.5 -60.5q13 -36 29 -76q15 -41 28 -77t22 -60q9 -25 10 -29q1 4 9.5 28.5t21.5 59
t29 74.5q15 40 29 75q13 35 22 59.5t10 28.5l223 595h149zM352 1175v20l239 294h161v-25l-307 -289h-93z" />
    <glyph glyph-name="thorn" unicode="&#xfe;" horiz-adv-x="1277" 
d="M1169 530q0 -117 -28.5 -218.5t-86.5 -175t-146 -115.5t-206 -42q-133 0 -233.5 57t-153.5 157h-4q0 -1 1 -19q0 -18 1 -46q0 -29 1 -62q1 -34 1 -66v-470h-142v1970h142v-450q0 -23 -1 -56q-1 -34 -1 -65q-1 -31 -1 -53q-1 -23 -1 -25h4q59 107 157 164.5t250 57.5
q115 0 199 -41t139 -114t82 -172.5t27 -215.5zM1023 530q0 101 -22 181t-66 136t-111 86.5t-156 30.5q-71 0 -135.5 -23.5t-113.5 -75.5t-78.5 -136t-29.5 -207q0 -120 29 -203t77.5 -134t113 -73.5t135.5 -22.5q172 0 264.5 114t92.5 327z" />
    <glyph glyph-name="ydieresis" unicode="&#xff;" horiz-adv-x="1038" 
d="M560 -83q-39 -99 -76.5 -172t-78 -120.5t-86.5 -71t-100 -23.5q-73 0 -122 9v113q18 -4 40.5 -6.5t40.5 -2.5q80 0 138.5 79t113.5 225l18 53l-420 1053h150l219 -590q2 -2 11.5 -27.5t22.5 -60.5q13 -36 29 -76q15 -41 28 -77t22 -60q9 -25 10 -29q1 4 9.5 28.5t21.5 59
t29 74.5q15 40 29 75q13 35 22 59.5t10 28.5l223 595h149zM675 1196v174h125v-174h-125zM268 1196v174h125v-174h-125z" />
    <glyph glyph-name="dotlessi" unicode="&#x131;" horiz-adv-x="488" 
d="M173 0v1053h142v-1053h-142z" />
    <glyph glyph-name="OE" unicode="&#x152;" horiz-adv-x="2103" 
d="M1010 0q-44 -10 -93.5 -15.5t-99.5 -5.5q-171 0 -299 56.5t-214 157t-129 239t-43 302.5q0 170 45 307.5t132 233.5t214.5 148.5t293.5 52.5q104 0 196 -22h949v-123h-813v-523h749v-120h-749v-565h856v-123h-995zM1002 1325q-44 13 -89.5 19.5t-95.5 6.5
q-133 0 -233 -44t-167 -124.5t-100.5 -195t-33.5 -253.5t34.5 -254.5t102.5 -199.5t167 -130.5t230 -46.5q50 0 95.5 6.5t89.5 19.5v1196z" />
    <glyph glyph-name="oe" unicode="&#x153;" horiz-adv-x="2086" 
d="M1142 503q0 -86 21 -163.5t65.5 -135t113.5 -91t165 -33.5q122 0 206 56t118 145l131 -23q-18 -44 -50 -93.5t-85 -90t-131 -68t-189 -27.5q-85 0 -156 21.5t-126.5 59.5t-94.5 91t-61 115q-20 -62 -59 -115t-95 -91t-129 -59.5t-164 -21.5q-124 0 -220 40t-160.5 113
t-98 173.5t-33.5 220.5q0 118 31.5 217t95.5 172t161 114.5t229 41.5q94 0 167 -20t126.5 -57t89.5 -88t57 -111q23 62 63.5 112.5t96 87t124.5 56.5t149 20q125 0 215.5 -40t149 -112.5t86.5 -171.5t28 -218v-26h-837zM1496 973q-67 0 -129.5 -21t-111 -65.5t-78.5 -115.5
t-34 -170h697q-7 84 -30 152.5t-64.5 117.5t-103.5 75.5t-146 26.5zM998 526q0 225 -92.5 331.5t-273.5 106.5q-182 0 -279.5 -109t-97.5 -329q0 -112 26.5 -194t75 -136t115 -80.5t147.5 -26.5q181 0 280 106t99 331z" />
    <glyph glyph-name="Scaron" unicode="&#x160;" horiz-adv-x="1367" 
d="M1236 393q0 -89 -33.5 -164t-101.5 -130.5t-171 -87.5t-242 -32q-249 0 -390.5 93t-178.5 265l145 32q15 -59 44 -108t80 -85.5t125 -56.5t176 -20q85 0 158.5 16.5t127 51t84 89.5t30.5 131q0 81 -39 132.5t-101.5 84.5t-140.5 54t-155 40q-56 14 -112 29.5t-107.5 37
t-96 49t-78 67t-52.5 92.5t-19 122q0 101 38 173t106 118t159.5 68t199.5 22q123 0 210 -21t148.5 -61.5t99 -101t57.5 -139.5l-147 -31q-13 57 -40 101t-71.5 74t-107.5 46.5t-151 16.5q-98 0 -166.5 -20t-109.5 -55t-60 -82t-19 -101q0 -70 31.5 -116t85 -77t124.5 -52
t150 -40l122 -32t118 -37.5t106 -50.5t85.5 -71t58 -98.5t21.5 -134.5zM780 1580h-139l-262 307v14h85l244 -209h5l232 209h83v-14z" />
    <glyph glyph-name="scaron" unicode="&#x161;" horiz-adv-x="1050" 
d="M957 292q0 -73 -29 -130.5t-84.5 -98t-136 -62.5t-183.5 -22q-92 0 -166.5 13.5t-131 44.5t-94.5 83.5t-56 129.5l132 29q14 -60 41.5 -98t68.5 -60t93 -29.5t113 -7.5q64 0 118.5 11.5t95 35.5t63 60.5t22.5 87.5q0 55 -28.5 89t-76.5 57t-111 38.5t-131 30.5
q-66 16 -129.5 34.5t-113.5 50t-81 79.5t-31 120q0 137 104 215t304 78q77 0 144 -15t120 -46.5t89 -81.5t49 -119l-130 -17q-9 50 -34 83.5t-62 53.5t-82 28.5t-94 8.5q-137 0 -206 -47t-69 -127q0 -48 23.5 -79.5t64.5 -52.5t99 -36t128 -31t139.5 -35.5t125 -52.5
t89.5 -84t34 -129zM597 1175h-139l-262 307v14h85l244 -209h5l232 209h83v-14z" />
    <glyph glyph-name="Ydieresis" unicode="&#x178;" horiz-adv-x="1214" 
d="M680 637v-637h-147v637l-523 817h163l433 -692l434 692h162zM756 1580v174h125v-174h-125zM349 1580v174h125v-174h-125z" />
    <glyph glyph-name="Zcaron" unicode="&#x17d;" horiz-adv-x="1293" 
d="M1215 0h-1139v116l930 1213h-856v125h1029v-115l-929 -1214h965v-125zM734 1580h-139l-262 307v14h85l244 -209h5l232 209h83v-14z" />
    <glyph glyph-name="zcaron" unicode="&#x17e;" horiz-adv-x="966" 
d="M68 0v112l634 826h-592v115h753v-115l-635 -823h667v-115h-827zM558 1175h-139l-262 307v14h85l244 -209h5l232 209h83v-14z" />
    <glyph glyph-name="florin" unicode="&#x192;" horiz-adv-x="871" 
d="M787 1393q-17 3 -38 5.5t-41 2.5q-42 0 -72 -13t-49 -38t-31.5 -61t-22.5 -84l-30 -152h217l-21 -111h-217l-184 -942h-139l182 942h-153l20 111h153l32 162q12 60 31.5 112t52.5 90.5t83.5 60.5t128.5 22q30 0 62 -3.5t54 -7.5z" />
    <glyph glyph-name="circumflex" unicode="&#x2c6;" horiz-adv-x="651" 
d="M649 1189v-14h-83l-232 209h-5l-244 -209h-85v14l262 307h139z" />
    <glyph glyph-name="caron" unicode="&#x2c7;" horiz-adv-x="651" 
d="M401 1175h-139l-262 307v14h85l244 -209h5l232 209h83v-14z" />
    <glyph glyph-name="ring" unicode="&#x2da;" horiz-adv-x="602" 
d="M544 1393q0 -50 -18.5 -94.5t-51.5 -77.5t-77.5 -52.5t-94.5 -19.5t-94 19.5t-77 52.5t-52.5 77.5t-19.5 94.5q0 51 19.5 94.5t52.5 76.5t77 52.5t94 19.5t94.5 -19.5t77.5 -52.5t51.5 -76.5t18.5 -94.5zM463 1393q0 34 -13 62t-35 49.5t-51 34t-62 12.5q-32 0 -61 -12.5
t-51 -34t-34.5 -49.5t-12.5 -62q0 -33 12.5 -63t34.5 -52t51 -34t61 -12q33 0 62 12t51 34t35 52t13 63z" />
    <glyph glyph-name="tilde" unicode="&#x2dc;" horiz-adv-x="655" 
d="M484 1175q-43 0 -85 21.5t-80 48.5q-39 26 -75 47t-69 21q-29 0 -48.5 -11t-32.5 -29t-20.5 -43t-12.5 -55h-89q6 47 17.5 89.5t34 75.5t58 52t90.5 19q45 0 87 -20.5t81 -45.5q38 -25 73.5 -46.5t66.5 -21.5q30 0 49 10.5t32 28.5t20 42.5t12 52.5h91
q-7 -45 -18.5 -87.5t-33.5 -75.5t-57.5 -53t-90.5 -20z" />
    <glyph glyph-name="uni0951" unicode="&#x951;" 
d="M-263 1934h131v-515h-131v515z" />
    <glyph glyph-name="uni0952" unicode="&#x952;" 
d="M-1176 -116h1006v-129h-1006v129z" />
    <glyph glyph-name="uni0964" unicode="&#x964;" horiz-adv-x="636" 
d="M335 1290h159v-1290h-159v1290z" />
    <glyph glyph-name="uni0965" unicode="&#x965;" horiz-adv-x="1068" 
d="M335 1290h159v-1290h-159v1290zM768 1290h158v-1290h-158v1290z" />
    <glyph glyph-name="uni0B01" unicode="&#xb01;" 
d="M-575 1929h131q0 -145 59.5 -218t179.5 -73q117 0 177 73t60 218h132q0 -207 -92.5 -311.5t-276.5 -104.5q-185 0 -277.5 104.5t-92.5 311.5zM-298 1876q0 47 25 76t68 29q41 0 66 -29t25 -76q0 -48 -25 -77t-66 -29q-43 0 -68 29t-25 77z" />
    <glyph glyph-name="uni0B02" unicode="&#xb02;" horiz-adv-x="600" 
d="M36 1084q0 54 21.5 101.5t57 83t83 57t101.5 21.5t102.5 -21.5t84.5 -57t57 -83t21 -101.5q0 -55 -21 -103t-57 -84.5t-84.5 -57t-102.5 -20.5t-101.5 20.5t-84 57t-57 84.5t-20.5 103zM432 1084q0 27 -10 52t-28.5 44.5t-43 30.5t-51.5 11t-51 -11t-42 -30.5t-28 -44.5
t-10 -52q0 -29 10 -54.5t28 -44.5t42 -30t51 -11t51.5 11t43 30t28.5 44.5t10 54.5z" />
    <glyph glyph-name="uni0B03" unicode="&#xb03;" horiz-adv-x="697" 
d="M83 330q0 71 47.5 151t136.5 154q-89 73 -136.5 163.5t-47.5 179.5q0 59 20.5 112t56.5 92.5t84 62.5t102 23t102.5 -23t84.5 -62.5t56.5 -92.5t20.5 -112q0 -89 -40.5 -177.5t-118.5 -165.5q78 -78 118.5 -156.5t40.5 -148.5q0 -62 -20.5 -117.5t-56 -96.5t-84 -65.5
t-103.5 -24.5q-54 0 -102.5 24t-84 65.5t-56 97t-20.5 117.5zM479 330q0 54 -35 112.5t-98 112.5q-62 -54 -97 -112.5t-35 -112.5q0 -35 10.5 -66t28.5 -54.5t42 -37t51 -13.5q28 0 52 13.5t42 37t28.5 54.5t10.5 66zM479 978q0 32 -10.5 61t-28.5 50.5t-42 34t-52 12.5
q-27 0 -51 -12t-42 -34t-28.5 -50.5t-10.5 -61.5q0 -81 35 -152t97 -126q63 64 98 136t35 142z" />
    <glyph glyph-name="uni0B05" unicode="&#xb05;" horiz-adv-x="1302" 
d="M79 378q0 148 116 266q115 117 294 148q107 19 179 108q71 91 71 209q0 49 -29 84t-70 35q-20 0 -38 -9t-31.5 -25t-21 -38t-7.5 -47v-184h-133v184q0 49 -29 84t-70 35q-40 0 -69 -35t-29 -85q0 -32 14.5 -57t37.5 -34q30 -11 48 -33t18 -46q0 -25 -20.5 -41.5
t-50.5 -16.5q-76 0 -127 67q-53 68 -53 162q0 114 58.5 176t166.5 62q58 0 104.5 -27t67.5 -73q12 44 60 72t114 28q50 0 91.5 -17t70.5 -48t44.5 -74.5t15.5 -98.5q0 -156 -98 -273q-97 -119 -245 -143q-138 -26 -228 -114q-89 -86 -89 -198q0 -119 112 -204
q111 -83 271 -83q182 0 308 103q128 105 128 252v841h129v-1290h-129v172q-66 -93 -181 -145.5t-255 -52.5q-216 0 -365 118q-151 118 -151 286z" />
    <glyph glyph-name="uni0B06" unicode="&#xb06;" horiz-adv-x="1700" 
d="M79 378q0 148 116 266q115 117 294 148q107 19 179 108q71 91 71 209q0 49 -29 84t-70 35q-20 0 -38 -9t-31.5 -25t-21 -38t-7.5 -47v-184h-133v184q0 49 -29 84t-70 35q-40 0 -69 -35t-29 -85q0 -32 14.5 -57t37.5 -34q30 -11 48 -33t18 -46q0 -25 -20.5 -41.5
t-50.5 -16.5q-76 0 -127 67q-53 68 -53 162q0 114 58.5 176t166.5 62q58 0 104.5 -27t67.5 -73q12 44 60 72t114 28q50 0 91.5 -17t70.5 -48t44.5 -74.5t15.5 -98.5q0 -156 -98 -273q-97 -119 -245 -143q-138 -26 -228 -114q-89 -86 -89 -198q0 -119 112 -204
q111 -83 271 -83q182 0 308 103q128 105 128 252v841h129v-1290h-129v172q-66 -93 -181 -145.5t-255 -52.5q-216 0 -365 118q-151 118 -151 286zM1429 1290h129v-1290h-129v1290z" />
    <glyph glyph-name="uni0B07" unicode="&#xb07;" horiz-adv-x="1366" 
d="M232 203v179q0 31 4.5 59.5t17.5 51.5q-98 58 -152 150t-54 202q0 103 47.5 194.5t129.5 160t191 108t233 39.5q122 0 232 -44t192 -119.5t129.5 -176t47.5 -215.5q0 -151 -23 -277.5t-70 -224.5l172 -264l-106 -66l-212 330q52 91 79 218.5t27 283.5q0 89 -36.5 168.5
t-100.5 138.5t-150 94t-182 35t-181 -29.5t-149 -82t-101.5 -122t-37.5 -149.5q0 -77 39.5 -144.5t106.5 -105.5q40 40 119 40q49 0 89 -22t57 -58q25 37 64 58.5t80 21.5q43 0 81.5 -18t67.5 -48.5t46 -72t17 -87.5v-210q0 -47 -17 -87.5t-46 -71t-67 -48.5t-82 -18
q-54 0 -93.5 20t-50.5 54q-20 -34 -59.5 -54t-86.5 -20q-44 0 -82 18t-67 48.5t-46 71t-17 87.5v4zM524 199v210q0 54 -22 80t-53 26q-35 0 -59.5 -26t-24.5 -80v-210q0 -55 23.5 -80.5t55.5 -25.5q33 0 56.5 25.5t23.5 80.5zM814 199v210q0 54 -22 80t-53 26
q-35 0 -59.5 -26t-24.5 -80v-210q0 -55 23.5 -80.5t55.5 -25.5q34 0 57 25.5t23 80.5z" />
    <glyph glyph-name="uni0B08" unicode="&#xb08;" horiz-adv-x="1334" 
d="M301 610q12 9 33 17t58 8q49 0 89 -22t57 -58q26 37 64.5 58.5t79.5 21.5q43 0 81.5 -18t67.5 -48.5t46 -72t17 -87.5v-210q0 -47 -17 -87.5t-46 -71t-67 -48.5t-82 -18q-54 0 -93 20t-51 54q-19 -34 -58.5 -54t-87.5 -20q-44 0 -82 17.5t-66.5 48.5t-45 71.5t-16.5 87.5
v210q0 17 8.5 46t21.5 47q-40 19 -73 45t-56.5 57t-35.5 65.5t-12 69.5q0 57 24.5 106t65.5 85.5t96.5 58t117.5 21.5q-19 13 -29.5 36t-10.5 50q0 52 28.5 98t77.5 79.5t113.5 53.5t136.5 20q119 0 222 -50.5t180.5 -137t122 -202t44.5 -244.5q0 -112 -23 -218.5
t-70 -204.5l159 -250l-112 -66l-192 290q54 114 79.5 227t25.5 222q0 104 -34.5 197.5t-94.5 164.5t-139.5 112t-167.5 41q-44 0 -84.5 -11.5t-71.5 -30.5t-49.5 -42t-18.5 -48q0 -30 14 -55.5t39 -36.5q51 -15 95.5 -42t75.5 -64l-78 -85q-46 38 -108.5 58t-135.5 20
q-34 -2 -63.5 -15t-52 -32.5t-36 -44.5t-13.5 -53q0 -44 35.5 -83t97.5 -53zM472 199v210q0 44 -22 75t-53 31q-35 0 -59.5 -31t-24.5 -75v-210q0 -44 23.5 -75t55.5 -31q34 0 57 31t23 75zM762 199v210q0 44 -23 75t-57 31q-32 0 -55 -31t-23 -75v-210q0 -44 23 -75t55 -31
q34 0 57 31t23 75z" />
    <glyph glyph-name="uni0B09" unicode="&#xb09;" horiz-adv-x="1308" 
d="M214 343q0 89 40 159q-46 22 -84 58.5t-65.5 83t-41.5 101.5t-14 114q0 102 44.5 191t120 155t176.5 104t214 38q125 0 235 -48.5t193 -131t131 -193t48 -235.5q0 -133 -30 -253.5t-88 -221.5l158 -238l-112 -71l-192 309q66 93 99.5 214t33.5 261q0 101 -37.5 190
t-102.5 155.5t-151.5 105t-184.5 38.5q-87 0 -163.5 -29t-134.5 -79.5t-91.5 -117.5t-33.5 -143q0 -46 9 -88t26 -75.5t42 -57t55 -30.5q38 54 92 94t120 64l45 -112q-53 -24 -95.5 -58.5t-72.5 -75t-46.5 -85.5t-16.5 -92q0 -50 17.5 -96t48 -79.5t71.5 -53.5t88 -20
q41 0 77 12.5t63 33.5t42.5 50t15.5 62q0 29 -25 61.5t-67 56.5l-92 -93l-93 93l370 369l92 -91l-198 -199q66 -23 105.5 -82t39.5 -130q0 -54 -26 -102.5t-71 -84t-105 -56t-128 -20.5q-73 0 -136.5 30t-110.5 80t-75 117t-28 142z" />
    <glyph glyph-name="uni0B0A" unicode="&#xb0a;" horiz-adv-x="1298" 
d="M223 343q0 35 7 65.5t20 53.5q-93 54 -145.5 149t-52.5 208q0 109 43 205t118 167.5t174 113.5t212 42q112 0 212 -42t174.5 -113.5t118.5 -167.5t44 -205q0 -44 -10.5 -94t-29.5 -105q26 -3 48 -18.5t37.5 -38t24.5 -52t9 -62.5q0 -62 -36 -112.5t-96 -72.5l159 -238
l-106 -52l-224 343q74 13 122.5 50.5t48.5 81.5q0 18 -12 33.5t-33.5 27t-50 18.5t-61.5 7q37 45 57 118t20 166q0 81 -33.5 155.5t-91 130.5t-133 89.5t-158.5 33.5q-84 0 -159.5 -33.5t-132.5 -89.5t-90.5 -130.5t-33.5 -155.5q0 -77 32.5 -141t87.5 -96q34 58 94 108
t129 83l54 -106q-51 -23 -93 -58t-71 -77.5t-45 -90.5t-16 -98t15.5 -95t42 -79.5t62.5 -54.5t78 -20q38 0 71.5 14.5t58.5 39.5t40 58.5t15 70.5q0 47 -22 83t-57 49l-131 -132l-93 93l397 395l92 -92l-172 -171q54 -26 86.5 -86.5t32.5 -138.5q0 -62 -25.5 -117.5
t-68.5 -96.5t-101 -65t-123 -24q-68 0 -128 30t-105 80t-71 117t-26 142z" />
    <glyph glyph-name="uni0B0B" unicode="&#xb0b;" horiz-adv-x="1351" 
d="M261 317q0 42 7 75.5t20 56.5q-55 26 -98.5 65t-74.5 89.5t-48 108.5t-17 120q0 107 45.5 200.5t122.5 163t180.5 110.5t219.5 41t219 -42t180.5 -113.5t123 -167.5t45.5 -205q0 -146 -53 -237q49 -22 77 -68.5t28 -104.5q0 -47 -21 -85.5t-57 -59.5l171 -238l-106 -66
l-237 357q49 0 84 27.5t35 64.5q0 40 -38 67t-92 27h-8q-4 -1 -8 -1q45 66 69 146.5t24 170.5q0 81 -35.5 155.5t-95.5 130.5t-138.5 89.5t-166.5 33.5t-166.5 -32t-138.5 -86.5t-95.5 -126t-35.5 -151.5q0 -50 13 -95.5t35.5 -81t54 -58.5t68.5 -29q40 47 99 73t126 26
q66 0 123.5 -28t100.5 -75.5t68 -110.5t25 -136q0 -69 -25 -131.5t-67.5 -109t-100.5 -74.5t-124 -28t-124 28t-100.5 74.5t-67.5 109t-25 131.5zM762 317q0 45 -14 85t-39 70.5t-58.5 48t-72.5 17.5q-37 0 -71 -17.5t-59 -48t-40 -70.5t-15 -85t14.5 -85t39.5 -70
t58.5 -47.5t72.5 -17.5t72.5 17.5t58.5 47.5t39 70t14 85z" />
    <glyph glyph-name="uni0B0C" unicode="&#xb0c;" horiz-adv-x="1130" 
d="M515 801q62 12 115.5 36.5t92 57.5t61 72t22.5 82q0 40 -17.5 73t-48.5 56.5t-71.5 36.5t-86.5 13q-47 0 -88 -13t-72 -35.5t-48.5 -54t-17.5 -68.5h-132q0 60 28.5 112.5t77.5 92.5t113.5 62.5t138.5 22.5q72 0 137 -24t113.5 -65.5t77 -96.5t28.5 -119q0 -63 -28 -121
t-77 -105.5t-117 -82.5t-148 -51q-84 -15 -156.5 -46.5t-126 -74t-83.5 -95t-30 -109.5q0 -50 27 -96.5t73.5 -81.5t109 -55.5t133.5 -20.5q0 79 27 151t74 127t110 88t136 33q49 0 92 -17.5t75.5 -48t51 -71t18.5 -85.5q0 -151 -133 -228t-398 -77q-110 0 -203 23.5
t-170 80.5q-78 56 -116.5 129t-38.5 153q0 76 36 147.5t99.5 130.5t150.5 101t189 61zM965 285q0 18 -8.5 35t-22.5 30.5t-33.5 22t-41.5 8.5q-42 0 -81 -24t-68 -63t-45.5 -88.5t-16.5 -102.5q64 0 122 15.5t101.5 40.5t68.5 58t25 68z" />
    <glyph glyph-name="uni0B0F" unicode="&#xb0f;" horiz-adv-x="1318" 
d="M1085 0l-1071 951l80 93l953 -845v963q-98 -10 -228 -105q-130 -97 -130 -159q22 0 36.5 -19.5t14.5 -46.5q0 -39 -27 -66t-64 -27q-25 0 -47 10.5t-38 28.5t-25 42.5t-9 51.5q0 139 223 294q224 155 423 155v-1321h-91z" />
    <glyph glyph-name="uni0B10" unicode="&#xb10;" horiz-adv-x="1554" 
d="M1125 819h159v581q0 27 -10.5 51.5t-28.5 42.5t-42 28.5t-51 10.5q-25 0 -61 -4t-85 -11q-48 -6 -84 -9.5t-60 -3.5q-67 0 -135 27.5t-130 78.5l79 119q54 -44 101 -68t85 -24q24 0 60 3.5t84 9.5q49 7 85 10t61 3q110 0 184 -77q77 -79 77 -187v-1400h-129v700h-159
v-700h-132l-978 965l80 92l901 -873v978q-49 -5 -99.5 -26t-116.5 -70q-65 -49 -91.5 -89t-26.5 -71q22 0 36.5 -19.5t14.5 -46.5q0 -39 -27 -66t-64 -27q-25 0 -47 10.5t-38 28.5t-25 42.5t-9 51.5q0 69 53 145.5t165 153.5t207.5 109.5t196.5 32.5v-502z" />
    <glyph glyph-name="uni0B13" unicode="&#xb13;" horiz-adv-x="1125" 
d="M79 635q0 216 67.5 424t196.5 394l99 -66q-117 -167 -177 -358.5t-60 -393.5q0 -111 32.5 -209t88.5 -171.5t132 -116.5t162 -43q66 0 121.5 21t96 57.5t64 87t23.5 109.5q0 161 -150 234q-41 -38 -92 -74t-88 -54l-66 106q157 73 250 205q93 134 93 282q0 33 -11.5 62
t-31.5 50t-46.5 34t-56.5 13q-29 0 -55.5 -13.5t-46 -37.5t-31 -55t-11.5 -65q0 -7 4 -22t9 -31q5 -17 9 -32t4 -21q0 -22 -15.5 -37.5t-37.5 -15.5q-17 0 -35.5 15.5t-34 38.5t-26 51t-10.5 54q0 59 22 112t60 92t88.5 62.5t106.5 23.5q57 0 108 -22t88.5 -59.5t59.5 -88.5
t22 -108q0 -43 -9 -91t-27.5 -96.5t-43.5 -94t-58 -87.5q92 -49 141.5 -133.5t49.5 -188.5q0 -84 -34.5 -157.5t-94 -128.5t-138.5 -86.5t-170 -31.5q-113 0 -206.5 44t-173.5 141q-80 96 -120.5 217.5t-40.5 258.5z" />
    <glyph glyph-name="uni0B14" unicode="&#xb14;" horiz-adv-x="1410" 
d="M79 635q0 216 67.5 424t196.5 394l99 -66q-117 -167 -177 -358.5t-60 -393.5q0 -111 32.5 -209t88.5 -171.5t132 -116.5t162 -43q66 0 121.5 21t96 57.5t64 87t23.5 109.5q0 161 -150 234q-41 -38 -92 -74t-88 -54l-66 106q157 73 250 205q93 134 93 282q0 33 -11.5 62
t-31.5 50t-46.5 34t-56.5 13q-29 0 -55.5 -13.5t-46 -37.5t-31 -55t-11.5 -65q0 -7 4 -22t9 -31q5 -17 9 -32t4 -21q0 -22 -15.5 -37.5t-37.5 -15.5q-17 0 -35.5 15.5t-34 38.5t-26 51t-10.5 54q0 59 22 112t60 92t88.5 62.5t106.5 23.5q57 0 108 -22t88.5 -59.5t59.5 -88.5
t22 -108q0 -43 -9 -91t-27.5 -96.5t-43.5 -94t-58 -87.5q25 -14 48 -31.5t44 -37.5q8 -8 22.5 -21t31.5 -25t36 -21t38 -9q17 0 32 11t21 29v858q0 25 -9 46.5t-25 38t-38 26t-47 9.5q-15 0 -41 -3q-26 -4 -57 -8q-32 -4 -66 -9q-34 -6 -65.5 -10t-58 -7t-42.5 -3
q-66 0 -132.5 23.5t-131.5 68.5l65 105q31 -31 83.5 -48.5t115.5 -17.5q16 0 43 4q26 3 58 7q31 3 65 9t65.5 10t57.5 7t41 3q52 0 97 -20t78.5 -54t53 -80t19.5 -97v-1453h-129v423q-50 0 -88 17q3 -16 4.5 -31.5t1.5 -30.5q0 -84 -34.5 -157.5t-94 -128.5t-138.5 -86.5
t-170 -31.5q-113 0 -206.5 44t-173.5 141q-80 96 -120.5 217.5t-40.5 258.5z" />
    <glyph glyph-name="uni0B15" unicode="&#xb15;" horiz-adv-x="1289" 
d="M578 159q-48 -40 -119 -40q-51 0 -97.5 22.5t-80 61t-53.5 90t-20 109.5q0 68 25 113q-41 14 -75 45t-58 73t-37.5 93t-13.5 106q0 107 47 200.5t128.5 163t189.5 110.5t230 41q121 0 229.5 -41t189.5 -110.5t128 -163t47 -200.5q0 -89 -23.5 -160.5t-68.5 -116.5
l-106 65q32 47 49.5 100.5t17.5 111.5q0 83 -37 155t-100 125.5t-147 84.5t-179 31q-94 0 -178.5 -31t-148 -84.5t-100 -125.5t-36.5 -155q0 -77 32.5 -134.5t87.5 -77.5q25 31 67 48.5t91 17.5q62 0 111 -24.5t74 -66.5q24 42 66.5 66.5t91.5 24.5q47 0 87 -18t70 -49
t47.5 -71.5t17.5 -85.5v-462h-129v462q0 44 -27 75t-66 31q-38 0 -66.5 -31t-28.5 -75v-462h-129v159zM578 370v66q0 27 -9 51t-25 42t-38 28.5t-47 10.5q-24 0 -46 -13.5t-39 -36.5t-26 -52.5t-9 -63.5q0 -33 9 -62.5t25.5 -52.5t38 -36.5t47.5 -13.5q25 0 47 10.5t38 28.5
t25 42.5t9 51.5z" />
    <glyph glyph-name="uni0B16" unicode="&#xb16;" horiz-adv-x="1352" 
d="M401 588q43 36 97.5 60.5t118.5 24.5q68 0 128 -28t105 -76.5t71 -113.5t26 -138q0 -69 -26 -131.5t-71 -109t-105 -74.5t-128 -28q-69 0 -129 28t-105 74.5t-71 109t-26 131.5q0 48 8.5 89.5t26.5 70.5q-54 9 -103 42t-86.5 83.5t-59.5 114t-22 134.5q0 231 174 368
q89 70 204.5 99t261.5 29q63 0 112 -3.5t67 -8.5q-67 -39 -105.5 -108.5t-38.5 -154.5q0 -35 11.5 -66t31 -54.5t46 -37.5t55.5 -14q44 0 83 23.5t67 63.5t44.5 92t16.5 112v99h129v-1290h-129v873q-40 -47 -94.5 -73t-116.5 -26q-56 0 -106.5 23t-88.5 64t-60 95t-22 116
q0 48 8.5 90.5t25.5 65.5q-100 0 -181 -26.5t-139 -75.5t-90.5 -118.5t-32.5 -156.5q0 -46 17 -90t46 -80t69 -60.5t86 -32.5zM815 319q0 45 -15.5 88t-42.5 76t-63 53t-77 20q-40 0 -76.5 -20t-63.5 -53t-42.5 -75.5t-15.5 -88.5t15.5 -86.5t42.5 -71.5t63.5 -49t76.5 -18
q41 0 77 19t63 49.5t42.5 71.5t15.5 85z" />
    <glyph glyph-name="uni0B17" unicode="&#xb17;" horiz-adv-x="1351" 
d="M286 317q0 48 7.5 85t19.5 60q-58 15 -107 50t-83.5 84.5t-54 109.5t-19.5 126q0 106 46.5 199.5t126 163.5t184.5 111t224 41q73 0 141.5 -16t127 -45.5t105 -70.5t76.5 -93v168h129v-1290h-129v819q0 84 -35.5 158t-97 129.5t-143.5 88.5t-174 33t-173.5 -31.5
t-142.5 -85.5t-97 -126t-36 -153q0 -45 14.5 -87.5t40.5 -78t62.5 -61.5t80.5 -37q51 50 112.5 77.5t125.5 27.5q68 0 128 -28t105 -76.5t71 -113.5t26 -138q0 -69 -26 -131.5t-71 -109t-105 -74.5t-128 -28q-69 0 -129 28t-105 74.5t-71 109t-26 131.5zM815 319
q0 45 -15.5 88t-42.5 76t-63 53t-77 20q-40 0 -76.5 -20t-63.5 -53t-42.5 -75.5t-15.5 -88.5t15.5 -86.5t42.5 -71.5t63.5 -49t76.5 -18q41 0 77 19t63 49.5t42.5 71.5t15.5 85z" />
    <glyph glyph-name="uni0B18" unicode="&#xb18;" horiz-adv-x="1326" 
d="M698 119q-17 -66 -75 -105.5t-135 -39.5q-57 0 -107.5 24t-88.5 66t-60 97.5t-22 117.5q0 135 40 197q-45 22 -81.5 59.5t-62.5 87.5t-40 110t-14 126q0 102 45.5 191t123 155t180.5 104t218 38q143 0 258 -50.5t178 -140.5v134h129v-1290h-129v34q-23 -29 -61 -44.5
t-83 -15.5q-39 0 -74 10.5t-63 30t-48 45.5t-28 59zM635 277v199h129v-199q0 -36 11.5 -69.5t31.5 -59t47 -40.5t57 -15q29 0 55.5 15t46 40t31 58.5t11.5 70.5v582q0 76 -34.5 143t-94 117.5t-139 79.5t-168.5 29t-168 -29t-138.5 -79.5t-94.5 -117.5t-35 -143
q0 -81 35.5 -150.5t97.5 -113.5q48 58 112.5 94.5t137.5 49.5l27 -119q-54 -9 -99.5 -39.5t-80 -76.5t-53 -104t-18.5 -123q0 -37 11.5 -70.5t31 -58.5t46 -40t57.5 -15t57 15t46 40.5t32 59t12 69.5z" />
    <glyph glyph-name="uni0B19" unicode="&#xb19;" horiz-adv-x="1415" 
d="M233 343q0 49 7.5 86t20.5 60q-48 22 -87.5 58.5t-67 83t-42.5 101.5t-15 113q0 103 44 194t119.5 159.5t176.5 108.5t215 40q84 0 160.5 -17.5t141.5 -50t115.5 -78.5t81.5 -105q22 13 55 13q47 0 87.5 -17t71 -47t48.5 -70t18 -85t-18 -84.5t-48.5 -69t-71 -46.5
t-87.5 -17q-45 0 -86 17t-72 46t-49 69t-18 85t15.5 82t42.5 57q-54 93 -157 146t-230 53q-87 0 -164.5 -30.5t-134.5 -82.5t-90.5 -121.5t-33.5 -148.5q0 -77 39 -141.5t106 -95.5q25 42 62.5 75.5t83.5 55.5l66 -104q-81 -47 -126.5 -125t-45.5 -167q0 -50 19 -96
t51 -79.5t75.5 -53.5t92.5 -20t92 14.5t75.5 39.5t51 58t18.5 71q0 25 -9.5 47.5t-26 39.5t-37 27t-42.5 10l-127 -139l-88 81l344 383l92 -78l-132 -146q34 -5 63 -26t50 -50.5t33.5 -67.5t12.5 -81q0 -63 -29.5 -118t-80 -96t-117.5 -65t-143 -24t-143.5 29t-117.5 79.5
t-80 117.5t-30 143zM1251 890q0 36 -27 62t-66 26q-38 0 -65 -26t-27 -62q0 -35 27 -60t65 -25q39 0 66 25t27 60z" />
    <glyph glyph-name="uni0B1A" unicode="&#xb1a;" horiz-adv-x="1238" 
d="M308 450q-55 14 -103 48.5t-82 85.5t-53.5 115.5t-19.5 137.5q0 106 44.5 199t121.5 162t181 109t222 40q116 0 220 -39.5t181.5 -106.5t122.5 -157.5t45 -193.5q0 -89 -27 -167.5t-79 -140.5l-105 66q38 55 58 117t20 125q0 79 -34.5 148t-94 120t-139 80.5t-168.5 29.5
q-93 0 -173.5 -30.5t-140.5 -83t-95 -124.5t-35 -153q0 -53 16.5 -100t44 -83.5t65 -59.5t80.5 -26q50 50 111 77.5t125 27.5q68 0 128 -28t105 -76.5t71 -113.5t26 -138q0 -69 -26 -131.5t-71 -109t-105 -74.5t-128 -28q-69 0 -129 28t-105 74.5t-71 109t-26 131.5
q0 48 6 79.5t16 53.5zM815 319q0 45 -15.5 88t-42.5 76t-63 53t-77 20q-40 0 -76.5 -20t-63.5 -53t-42.5 -75.5t-15.5 -88.5t15.5 -86.5t42.5 -71.5t63.5 -49t76.5 -18q41 0 77 19t63 49.5t42.5 71.5t15.5 85z" />
    <glyph glyph-name="uni0B1B" unicode="&#xb1b;" horiz-adv-x="1202" 
d="M144 179q0 42 20 81t58 70q-43 13 -70.5 30.5t-36.5 35.5l68 93q39 -39 73 -59.5t60 -20.5q-15 9 -23.5 44.5t-8.5 89.5q0 31 4.5 59t12.5 52q-55 10 -100 38.5t-78.5 70.5t-52 95t-18.5 112q0 77 44.5 146.5t120 120t176.5 80.5t213 30q113 0 214 -30t176.5 -80.5
t120 -120t44.5 -146.5q0 -54 -22 -108t-63 -103l-106 72q28 35 43.5 70.5t15.5 68.5q0 54 -33.5 101t-91.5 82t-134.5 55t-163.5 20q-86 0 -163 -20t-135 -55t-91.5 -82t-33.5 -101q0 -40 13.5 -76t38 -63t57 -42.5t68.5 -15.5q39 55 104 86.5t142 31.5q69 0 129 -27.5
t105 -75.5t71 -111.5t26 -134.5q-11 -129 -53 -172q36 -2 67 -19t54 -42.5t36.5 -59.5t13.5 -71q0 -41 -18.5 -78.5t-50 -65.5t-73.5 -44t-89 -16q-58 0 -116 35.5t-102 98.5q-36 -62 -98.5 -98t-135.5 -36q-47 0 -88 15.5t-72 43.5t-49.5 65t-18.5 81zM513 178
q-34 41 -71 63.5t-70 22.5q-40 0 -68 -25t-28 -61q0 -35 28 -60t68 -25q34 0 71.5 22.5t69.5 62.5zM924 178q0 36 -28.5 61t-68.5 25q-32 0 -66.5 -23t-62.5 -63q33 -40 67.5 -62.5t61.5 -22.5q40 0 68.5 25t28.5 60zM804 529q0 45 -15.5 88t-42.5 76t-63.5 53t-77.5 20
q-40 0 -76 -20t-63 -53t-42.5 -75.5t-15.5 -88.5q0 -45 15.5 -86t42.5 -71.5t63 -49t76 -18.5q41 0 77.5 19t63.5 50t42.5 71.5t15.5 84.5z" />
    <glyph glyph-name="uni0B1C" unicode="&#xb1c;" horiz-adv-x="1254" 
d="M231 317q0 128 48 198q-52 19 -95 54.5t-73.5 82.5t-47.5 103t-17 117q0 99 46 185.5t124.5 151t184.5 101.5t227 37q119 0 224 -36t184.5 -99t126 -147.5t46.5 -179.5q0 -74 -19 -135t-54 -102l-118 58q28 34 43.5 79.5t15.5 99.5q0 71 -36 133.5t-97.5 109t-142.5 73.5
t-173 27q-94 0 -176 -27.5t-143 -76t-96 -113t-35 -139.5q0 -46 13 -88t37 -75.5t56.5 -56t72.5 -30.5q26 31 66 47.5t87 16.5q51 0 90.5 -18t53.5 -48q26 31 68 48.5t91 17.5q37 0 70.5 -14.5t58.5 -40t40 -59t15 -70.5v-502h-130v502q0 22 -16 38.5t-38 16.5
q-27 0 -51.5 -13t-43 -35.5t-28.5 -51.5t-10 -61q0 -52 53 -98q26 -23 39.5 -56t13.5 -70q0 -40 -19 -76.5t-52 -63.5t-75.5 -42.5t-91.5 -15.5q-66 0 -124 28t-100.5 74.5t-67.5 109t-25 131.5zM654 172q0 54 -53 100q-26 23 -39.5 55.5t-13.5 68.5q0 79 39 133
q0 10 -15 18t-37 8q-78 0 -125.5 -64.5t-47.5 -173.5q0 -45 15 -85.5t40 -71.5t59 -49t72 -18q44 0 75 23t31 56z" />
    <glyph glyph-name="uni0B1D" unicode="&#xb1d;" horiz-adv-x="1289" 
d="M366 392q-68 13 -126 51.5t-100 96t-65 130t-23 150.5q0 225 180 382q92 80 200.5 112.5t237.5 32.5q25 0 53.5 -2t53 -5.5t42.5 -6.5t25 -7q-40 -46 -61.5 -102.5t-21.5 -115.5q0 -35 11 -66t29 -54.5t43 -37t53 -13.5q40 0 74.5 30.5t60.5 83.5t40.5 122t14.5 147h127
q0 -105 -24.5 -198t-68 -163.5t-101.5 -112t-123 -41.5q-55 0 -103 24t-83.5 65t-56.5 96.5t-21 117.5q0 39 4 73t12 47q-94 0 -178.5 -31.5t-148.5 -87t-101.5 -129.5t-37.5 -160q0 -58 17 -109.5t47 -91.5t72.5 -67t94.5 -36q22 35 53 64t67.5 49.5t76.5 32t80 11.5
q69 0 129 -28t105 -76.5t71 -113.5t26 -138q0 -16 -1.5 -31.5t-3.5 -30.5l243 -91l-49 -111l-233 91q-49 -83 -124 -126.5t-163 -43.5q-68 0 -128 28t-105 74.5t-71 109t-26 131.5q0 21 1.5 39.5t3.5 35.5zM891 319q0 45 -15.5 88t-42.5 76t-63 53t-77 20q-40 0 -76.5 -20
t-63.5 -53t-42.5 -75.5t-15.5 -88.5t15.5 -86.5t42.5 -71.5t63.5 -49t76.5 -18q41 0 77 19t63 49.5t42.5 71.5t15.5 85z" />
    <glyph glyph-name="uni0B1E" unicode="&#xb1e;" horiz-adv-x="1264" 
d="M97 489q0 97 30 176t88 127q-55 39 -86.5 119.5t-31.5 184.5q0 82 29 150.5t83 113.5l99 -65q-38 -46 -59 -97t-21 -102q0 -83 30 -151.5t84 -117t131 -75t171 -26.5q82 0 155.5 25.5t128.5 68.5t87 100.5t32 123.5q0 37 -10.5 70t-29.5 58t-44 40t-54 15
q-21 0 -40.5 -11t-34.5 -29t-23.5 -41.5t-8.5 -49.5v-171h-131v171q0 26 -8.5 49.5t-23.5 41.5t-35 29t-43 11t-42.5 -10t-34 -26t-23 -37t-8.5 -45q0 -29 17.5 -60.5t48.5 -57.5l-105 -79q-45 45 -69 96t-24 101q0 55 17.5 98.5t48.5 74.5t75.5 48t98.5 17q56 0 103 -26.5
t73 -71.5q20 45 67 71.5t105 26.5q55 0 102.5 -24t83.5 -66t57 -96.5t21 -116.5q0 -97 -42 -181.5t-117 -136.5q35 -13 64.5 -41t50 -68t32.5 -90t12 -104q0 -93 -43 -174t-115.5 -142.5t-170 -97t-207.5 -35.5q-111 0 -209 40.5t-171.5 110.5t-116.5 164t-43 200zM1046 423
q0 43 -11 81.5t-29.5 67.5t-43.5 46t-54 17q-44 0 -75 -33t-31 -80v-179h-131v179q0 24 -8.5 44.5t-23.5 35.5t-35 24t-43 9q-45 0 -76.5 -35t-31.5 -85q0 -36 17.5 -71t48.5 -61l-106 -79q-43 30 -67.5 85.5t-24.5 125.5q0 49 15.5 89t44.5 63l-73 40q-37 -32 -58.5 -88.5
t-21.5 -129.5q0 -81 33 -153.5t88.5 -126.5t130.5 -85t157 -31q83 0 157 25.5t130 70t89 105.5t33 129z" />
    <glyph glyph-name="uni0B1F" unicode="&#xb1f;" horiz-adv-x="1250" 
d="M310 451q-58 22 -106 61t-82 90.5t-53 113.5t-19 129q0 103 45.5 194.5t122.5 160t180.5 108t219.5 39.5q139 0 254.5 -53t181.5 -147v143h129v-604h-129v156q0 80 -35 150.5t-95 122.5t-138.5 82.5t-167.5 30.5t-168.5 -30.5t-138.5 -82t-94 -121t-35 -149.5
q0 -52 15 -99t41 -83.5t62.5 -62t80.5 -32.5q50 50 112 77.5t125 27.5q68 0 128 -28t105.5 -76.5t71 -113.5t25.5 -138q0 -69 -25.5 -131.5t-71 -109t-105.5 -74.5t-128 -28t-128 28t-105.5 74.5t-71 109t-25.5 131.5q0 45 6.5 80.5t15.5 53.5zM815 319q0 45 -15.5 88
t-42.5 76t-63 53t-77 20q-40 0 -76.5 -20t-63.5 -53t-42.5 -75.5t-15.5 -88.5t15.5 -86.5t42.5 -71.5t63.5 -49t76.5 -18q41 0 77 19t63 49.5t42.5 71.5t15.5 85z" />
    <glyph glyph-name="uni0B20" unicode="&#xb20;" horiz-adv-x="1298" 
d="M67 660q0 141 46 265.5t124.5 218t185 148.5t226.5 55t226.5 -55t185 -148.5t124.5 -218t46 -265.5q0 -140 -46 -264.5t-124.5 -218t-185 -148.5t-226.5 -55t-226.5 55t-185 148.5t-124.5 218t-46 264.5zM1098 660q0 117 -35.5 220t-96 180.5t-142.5 122.5t-175 45
t-175 -45t-142.5 -122.5t-96 -180.5t-35.5 -220q0 -116 35.5 -219t96 -180.5t142.5 -122.5t175 -45t175 45t142.5 122.5t96 180.5t35.5 219z" />
    <glyph glyph-name="uni0B21" unicode="&#xb21;" horiz-adv-x="1275" 
d="M321 587q22 46 66.5 87.5t94.5 64.5l66 -104q-81 -47 -126 -125t-45 -167q0 -50 18.5 -96t51 -80t75.5 -54t92 -20t91.5 15t75.5 40t51.5 58.5t18.5 70.5q0 25 -9.5 47.5t-25.5 39.5t-36.5 27t-42.5 10l-128 -139l-88 81l345 383l91 -78l-131 -146q33 -5 62 -26
t50.5 -50.5t33.5 -67.5t12 -81q0 -63 -29.5 -118t-80 -96t-117.5 -65t-143 -24t-143 29t-117.5 79.5t-80 117.5t-29.5 143q0 49 6.5 80.5t13.5 49.5q-50 17 -89.5 50.5t-67 79.5t-42.5 101.5t-15 114.5q0 110 47 206t127 167.5t186.5 113t226.5 41.5t228 -42t188 -113.5
t127 -167.5t47 -205q0 -125 -67 -239l-119 66q53 92 53 173q0 84 -35.5 159t-97 130.5t-143 87.5t-173.5 32q-94 0 -178.5 -32t-148 -87.5t-100 -130.5t-36.5 -159q0 -41 9 -79t26.5 -69t43 -53t60.5 -31z" />
    <glyph glyph-name="uni0B22" unicode="&#xb22;" horiz-adv-x="1276" 
d="M312 590q27 50 63.5 87.5t75.5 60.5l88 -90q-73 -52 -115 -129.5t-42 -162.5q0 -52 20.5 -97t56 -79t82.5 -54t101 -20q62 0 79 19q-67 47 -104.5 115t-37.5 143q0 52 19 97.5t51 80t76 54.5t93 20q51 0 96.5 -20t79.5 -54.5t54 -80t20 -97.5q0 -70 -36.5 -139.5
t-102.5 -124.5l99 -79l-79 -93l-117 89q-79 -55 -190 -55q-80 0 -151.5 29t-125 80t-85 119t-31.5 147q0 44 5 72.5t12 43.5q-51 17 -91 50.5t-67.5 80t-42.5 102t-15 114.5q0 110 47 206t127 167.5t186.5 113t226.5 41.5t228 -42t188 -113.5t127 -167.5t47 -205
q0 -125 -67 -239l-119 66q53 92 53 173q0 84 -35.5 159t-97 130.5t-143 87.5t-173.5 32q-94 0 -178.5 -32t-148 -87.5t-100 -130.5t-36.5 -159q0 -81 33.5 -144.5t96.5 -84.5zM939 383q0 27 -9.5 49.5t-25.5 40t-38 27.5t-48 10q-23 0 -44 -10t-36.5 -27.5t-24.5 -40
t-9 -49.5q0 -51 33.5 -104t93.5 -95q50 37 79 89t29 110z" />
    <glyph glyph-name="uni0B23" unicode="&#xb23;" horiz-adv-x="1327" 
d="M53 635q0 71 29.5 133.5t80 109t117.5 73.5t143 27q-14 24 -14 66q0 62 26 116.5t69 96t101 66t121 24.5q98 0 185 -48t146 -133v124h129v-1290h-129v978q-68 116 -156 183t-175 67q-37 0 -70.5 -15t-59 -40t-40 -58.5t-14.5 -70.5q0 -57 26 -79q54 -19 99.5 -50
t78.5 -70l-86 -92q-47 48 -109 74t-128 26q-48 0 -91.5 -18t-76 -50t-52 -73.5t-19.5 -91.5q70 40 225 40q99 0 187.5 -31.5t154.5 -86t104.5 -128t38.5 -157.5q0 -58 -22.5 -110t-62 -90.5t-91.5 -60.5t-110 -22q-218 0 -387 200q-168 200 -168 461zM766 253
q0 58 -28.5 109.5t-76.5 90t-113.5 60.5t-138.5 22q-134 0 -204 -40q14 -76 53.5 -148t95.5 -128t122 -90t132 -34q33 0 62 12.5t50.5 34t33.5 50.5t12 61z" />
    <glyph glyph-name="uni0B24" unicode="&#xb24;" horiz-adv-x="1250" 
d="M337 582q29 45 76.5 86t112.5 74l69 -94q-97 -56 -151 -137t-54 -168q0 -51 20 -96.5t53.5 -79t79 -53t97.5 -19.5q53 0 98.5 19t80 50.5t53.5 75t19 90.5q0 30 -5 53t-14 40q-31 -27 -71 -27q-24 0 -45.5 9t-37.5 25t-25 37.5t-9 44.5q0 26 11 48t29 38.5t43 26.5t52 10
q41 0 77.5 -24.5t63 -66t42 -97t15.5 -117.5q0 -72 -30 -137t-81.5 -113.5t-120 -77t-145.5 -28.5q-78 0 -146 29t-119 79.5t-81 117.5t-30 143q0 29 4 63t15 61q-60 17 -104 52.5t-72 82.5t-42.5 103t-14.5 114q0 110 47 206t127 167.5t186.5 113t226.5 41.5t228 -42
t188 -113.5t127 -167.5t47 -205q0 -125 -67 -239l-119 66q53 92 53 173q0 84 -35.5 159t-97 130.5t-143 87.5t-173.5 32q-94 0 -178.5 -32t-148 -87.5t-100 -130.5t-36.5 -159q0 -55 13 -96.5t35 -70.5t49.5 -46.5t57.5 -23.5z" />
    <glyph glyph-name="uni0B25" unicode="&#xb25;" horiz-adv-x="1244" 
d="M48 383q0 67 29 131t82 118t125.5 95.5t159.5 64.5q53 14 96 40.5t74.5 62t49 77t17.5 85.5q0 37 -15 68t-41 54t-62.5 36t-78.5 13q-43 0 -79 -13t-63 -36t-42 -54.5t-15 -67.5q0 -37 10.5 -55.5t22.5 -30.5q12 -13 22.5 -25t10.5 -35q0 -27 -19.5 -46.5t-46.5 -19.5
t-51.5 17.5t-42 46.5t-27.5 67t-10 81q0 60 26 112.5t70.5 92.5t105.5 62.5t128 22.5q68 0 128 -22.5t104.5 -62.5t71 -92.5t26.5 -112.5q0 -62 -23 -121t-65 -108t-101 -86.5t-128 -55.5t-127 -49t-100.5 -71.5t-66.5 -87t-24 -95.5q0 -53 27 -104.5t74.5 -92t111 -66
t137.5 -25.5q93 0 173.5 29.5t140.5 79t95 116t35 142.5v828h129v-1290h-129v169q-31 -46 -77 -82.5t-102.5 -61.5t-124 -38t-140.5 -13q-98 0 -186 32.5t-153.5 88t-103.5 130t-38 158.5z" />
    <glyph glyph-name="uni0B26" unicode="&#xb26;" horiz-adv-x="1247" 
d="M764 184q-24 -28 -68.5 -43.5t-102.5 -15.5q-63 0 -118.5 23.5t-96.5 64t-65 94.5t-24 115q0 36 10 67q-54 5 -99 34.5t-78.5 78t-52.5 111t-19 132.5q0 103 46 194.5t124 160t182.5 108t221.5 39.5q120 0 224.5 -39t182.5 -106.5t123.5 -159t45.5 -197.5q0 -67 -17 -131
t-49 -119l-119 65q53 92 53 185q0 81 -34 151t-94 121.5t-141.5 81t-174.5 29.5t-172.5 -29.5t-139.5 -82t-94.5 -122t-34.5 -149.5q0 -48 12.5 -91t34.5 -76t51 -51.5t61 -18.5q28 47 72 86.5t99 65.5l66 -100q-73 -33 -115.5 -98t-42.5 -140q0 -35 13.5 -66.5t36.5 -55
t54.5 -37t66.5 -13.5q36 0 67 13.5t54.5 37.5t37 55.5t13.5 66.5v263h129v-686h-129v184z" />
    <glyph glyph-name="uni0B27" unicode="&#xb27;" horiz-adv-x="1325" 
d="M50 409q0 79 30.5 151.5t83.5 131.5t125 99t157 54l-330 410l106 79l586 -739l-97 -80l-185 224q-71 -6 -134 -34.5t-109.5 -73t-73.5 -101.5t-27 -121q0 -66 29.5 -123.5t80 -99.5t118 -66.5t143.5 -24.5q104 0 182.5 29.5t138.5 81t104 120.5t76 150v814h129v-1290
h-129v259q-34 -63 -83 -115t-111.5 -89.5t-139 -59t-167.5 -21.5q-104 0 -195.5 34.5t-160 93.5t-108 138.5t-39.5 168.5z" />
    <glyph glyph-name="uni0B28" unicode="&#xb28;" horiz-adv-x="1258" 
d="M779 555q-82 0 -155 -27t-128 -73.5t-86.5 -109t-31.5 -133.5q0 -22 16 -38.5t38 -16.5q39 0 66 -25t27 -60t-27 -60t-66 -25q-37 0 -70.5 18t-59 48.5t-40 71t-14.5 87.5q0 69 27.5 134.5t77.5 115.5q-65 11 -120.5 46t-96.5 86t-63.5 115.5t-22.5 135.5q0 103 46 194.5
t125.5 160t184.5 108t225 39.5q118 0 222 -39.5t181 -107t121.5 -159.5t44.5 -196q0 -32 -5.5 -67.5t-14.5 -68.5t-20.5 -62.5t-25.5 -51.5l-119 65q25 40 39 88t14 97q0 81 -33.5 151t-93 120.5t-139.5 80.5t-171 30q-94 0 -176 -29t-142.5 -80.5t-95 -121.5t-34.5 -151
q0 -57 20 -107t55.5 -88.5t83.5 -60t103 -21.5q35 29 80 51t95 37t100.5 22.5t97.5 7.5h90v-686h-129v555z" />
    <glyph glyph-name="uni0B2A" unicode="&#xb2a;" horiz-adv-x="1349" 
d="M1078 166q-20 -43 -58 -78.5t-90 -61t-115 -39t-134 -13.5q-89 0 -168.5 29t-138.5 79.5t-94 117.5t-35 143q0 50 13.5 91.5t39.5 67.5q-55 14 -101 47t-79 78.5t-51.5 101t-18.5 116.5q0 103 46.5 194.5t125.5 160t184.5 108t223.5 39.5q74 0 142 -16t127 -45.5
t105.5 -70.5t75.5 -93v168h129v-1290h-129v166zM1078 462v383q0 80 -35.5 149.5t-96.5 121t-143 82t-175 30.5q-91 0 -172.5 -30.5t-142.5 -82t-97.5 -121t-36.5 -149.5q0 -44 15 -83.5t41.5 -71t62.5 -53.5t80 -29q48 47 111 73t133 26l20 -112q-55 -5 -103 -26.5
t-84 -55.5t-56.5 -77.5t-20.5 -92.5q0 -50 24 -96t66 -79.5t96.5 -53.5t116.5 -20q81 0 153.5 29t126.5 79.5t85.5 117.5t31.5 142z" />
    <glyph glyph-name="uni0B2B" unicode="&#xb2b;" horiz-adv-x="1527" 
d="M1050 172q-55 -93 -157 -145.5t-226 -52.5q-87 0 -163.5 28.5t-134.5 77t-91.5 113t-33.5 137.5q0 109 53 172q-56 19 -101.5 54t-78.5 80t-52 98.5t-19 110.5q0 103 45.5 194.5t123 160t180.5 108t219 39.5q72 0 139 -15t124 -42t101.5 -65.5t71.5 -88.5v154h129v-61
q16 18 44 28.5t64 10.5q43 0 81 -16.5t66.5 -44.5t45 -65.5t16.5 -79.5q0 -40 -16 -77t-44.5 -65.5t-66.5 -44.5t-82 -16q-34 0 -62.5 8t-45.5 22v-889h-129v172zM1050 476v383q0 76 -35 143t-94 117.5t-138.5 79.5t-168.5 29t-168.5 -30.5t-138.5 -82t-94 -121t-35 -149.5
q0 -44 15 -84t41.5 -73t63 -57.5t79.5 -35.5q40 47 103 76t140 36l21 -112q-55 -5 -103 -28t-84 -59t-56.5 -81.5t-20.5 -96.5q0 -49 23 -92t63 -74.5t92.5 -50.5t111.5 -19q79 0 148.5 30.5t121.5 82t82.5 121t30.5 148.5zM1393 1062q0 20 -8.5 39t-22.5 32.5t-33.5 21
t-41.5 7.5q-43 0 -73.5 -29.5t-30.5 -70.5q0 -40 30.5 -68.5t73.5 -28.5q44 0 75 28.5t31 68.5z" />
    <glyph glyph-name="uni0B2C" unicode="&#xb2c;" horiz-adv-x="1260" 
d="M808 409q0 36 -15 67.5t-40 55t-59 37t-71 13.5q-39 0 -72.5 -13.5t-58.5 -37t-40 -55t-15 -67.5q0 -35 15 -66.5t40 -55t58.5 -37t72.5 -13.5q37 0 71 13.5t59 37t40 54.5t15 67zM50 845q0 103 46 194.5t124 160t182.5 108t221.5 39.5q120 0 224.5 -39t182.5 -106.5
t123.5 -159t45.5 -197.5q0 -67 -17 -131t-49 -119l-119 65q53 92 53 185q0 81 -34 151t-94 121.5t-141.5 81t-174.5 29.5t-172.5 -29.5t-139.5 -82t-94.5 -122t-34.5 -149.5q0 -97 50 -159.5t155 -71.5q49 49 108 72t127 23q65 0 121.5 -23t99 -63.5t68 -95.5t25.5 -118
v-409h-129v178q-31 -31 -79 -48.5t-106 -17.5q-64 0 -121.5 23.5t-100 64t-67 94.5t-24.5 115q0 24 3.5 46t10.5 40q-58 11 -108.5 38t-87 71t-57.5 104.5t-21 136.5z" />
    <glyph glyph-name="uni0B2D" unicode="&#xb2d;" horiz-adv-x="1348" 
d="M205 370q0 137 28 185q-41 10 -75.5 39t-59 70.5t-38.5 93t-14 106.5q0 100 46.5 187.5t127.5 153.5t188 104t227 38q126 0 237.5 -50.5t195.5 -137t132.5 -202t48.5 -244.5t-24 -229.5t-69 -166.5l126 -277l-125 -46l-152 323q54 79 83 179.5t29 216.5q0 106 -38 199.5
t-104 164t-153.5 111t-186.5 40.5q-94 0 -177.5 -28.5t-145.5 -77.5t-98 -115.5t-36 -142.5q0 -65 28.5 -117t77.5 -74q38 67 93 106l86 -85q-62 -50 -94 -134.5t-32 -189.5q0 -57 19 -106.5t53.5 -87t80 -59.5t97.5 -22q44 0 82 15t66.5 41.5t44.5 62t16 76.5
q-32 -38 -108 -38q-43 0 -80.5 18t-65 48t-44 71t-16.5 87q0 77 30.5 146t88.5 117l92 -79q-38 -37 -58.5 -85.5t-20.5 -98.5q0 -44 27 -75t66 -31q37 0 63 27t26 65v224h129v-394q0 -66 -27 -123.5t-73 -100.5t-107 -68.5t-130 -25.5q-78 0 -148 31.5t-122 85t-82.5 126
t-30.5 153.5z" />
    <glyph glyph-name="uni0B2E" unicode="&#xb2e;" horiz-adv-x="1325" 
d="M235 159q0 73 27 144t79 133q-65 18 -118.5 55.5t-91.5 89.5t-59.5 116.5t-21.5 134.5q0 107 45.5 200.5t122.5 163t180.5 110.5t219.5 41q135 0 248.5 -51t187.5 -144v138h129v-1290h-129v845q0 80 -35 149.5t-94 121t-138.5 82t-168.5 30.5q-90 0 -170 -31t-139 -84.5
t-93 -125.5t-34 -155q0 -57 18 -107t50.5 -89.5t75.5 -64t95 -29.5q94 78 176.5 125.5t151.5 58.5l47 -106q-185 -68 -301 -189t-127 -259q24 0 46 -8.5t38 -23t25 -33.5t9 -41q0 -38 -31 -65t-74 -27q-31 0 -57.5 15.5t-46 41.5t-31 59t-11.5 69z" />
    <glyph glyph-name="uni0B2F" unicode="&#xb2f;" horiz-adv-x="1365" 
d="M381 304q0 60 25 92q-58 -34 -101.5 -70.5t-69.5 -73.5q19 -13 29.5 -34.5t10.5 -45.5q0 -44 -31 -75t-75 -31t-75 31t-31 75q0 37 17.5 76.5t50.5 78.5t79.5 77t104.5 72q-49 14 -90.5 47.5t-71 82t-46.5 110t-17 129.5q0 103 45.5 194.5t122.5 160t180.5 108
t219.5 39.5q139 0 254.5 -53t181.5 -146v142h129v-1290h-129v184q-17 -46 -51 -84.5t-79.5 -66.5t-99.5 -43.5t-113 -15.5q-75 0 -142 24.5t-118 68t-80.5 104t-29.5 133.5zM1094 529v329q0 76 -35 143.5t-94 118t-138.5 79.5t-168.5 29q-90 0 -170 -29.5t-139 -81t-93 -122
t-34 -150.5q0 -56 16 -106.5t44.5 -90.5t67 -64.5t83.5 -28.5l265 171l66 -106l-146 -98q-49 -31 -77.5 -89t-28.5 -129q0 -47 20 -86t53.5 -66t76 -42t89.5 -15q72 0 134.5 34.5t109 94t73 138t26.5 167.5z" />
    <glyph glyph-name="uni0B30" unicode="&#xb30;" horiz-adv-x="1303" 
d="M257 432q-40 21 -77.5 59t-65.5 88.5t-44.5 111.5t-16.5 127q0 110 45.5 206t124 167.5t182 113.5t219.5 42q120 0 225.5 -48t184 -130t124.5 -191.5t46 -231.5q0 -128 -27.5 -239.5t-78.5 -202.5l146 -251l-113 -66l-179 303q59 102 89.5 218t30.5 238q0 96 -35 184
t-96 153.5t-142.5 104.5t-174.5 39q-90 0 -170.5 -32.5t-142 -88t-97.5 -129.5t-36 -159q0 -50 10.5 -94.5t28.5 -81t43 -61t56 -35.5q48 62 113 94.5t144 32.5q68 0 128 -28t105 -76.5t71 -113.5t26 -138q0 -69 -26 -131.5t-71 -109t-105 -74.5t-128 -28q-69 0 -129 28
t-105 74.5t-70.5 109t-25.5 131.5q0 38 3.5 65.5t10.5 49.5zM771 319q0 45 -15.5 88t-42.5 76t-63 53t-77 20q-40 0 -76 -20t-63.5 -53t-43 -75.5t-15.5 -88.5t15.5 -86.5t43 -71.5t63.5 -49t76 -18q41 0 77 19t63 49.5t42.5 71.5t15.5 85z" />
    <glyph glyph-name="uni0B32" unicode="&#xb32;" horiz-adv-x="1375" 
d="M248 476q-45 22 -81.5 58t-62 84t-40 105t-14.5 121q0 104 47 195.5t128.5 160t190 108t229.5 39.5q85 0 164 -22t148 -62t125.5 -95.5t97 -123t63 -144.5t22.5 -161q0 -117 -23 -227t-69 -208l158 -232l-106 -72l-192 290q101 216 101 449q0 101 -38.5 190t-105 155.5
t-155.5 105t-190 38.5q-94 0 -178 -30.5t-147 -82.5t-100.5 -121.5t-37.5 -149.5q0 -89 32 -156.5t87 -92.5q20 36 59.5 57t85.5 21q48 0 86.5 -14t59.5 -39q21 25 55.5 39t76.5 14q37 0 70.5 -16t58 -43t39 -63t14.5 -75v-476h-129v476q0 32 -19.5 55.5t-46.5 23.5
q-29 0 -49 -23.5t-20 -55.5v-476h-129v476q0 32 -19 55.5t-48 23.5q-28 0 -48.5 -23.5t-20.5 -55.5v-476h-129v476z" />
    <glyph glyph-name="uni0B33" unicode="&#xb33;" horiz-adv-x="1265" 
d="M303 449q-54 10 -100.5 43.5t-80 85.5t-52 117t-18.5 137q0 106 45.5 199.5t125 163.5t185 111t225.5 41t226 -41t185.5 -110.5t125 -163.5t45.5 -201q0 -93 -22.5 -164.5t-63.5 -113.5l-106 74q28 41 43.5 93.5t15.5 110.5q0 82 -35.5 154.5t-96.5 126t-142.5 84.5
t-174.5 31q-92 0 -173.5 -31t-143 -84.5t-97 -126t-35.5 -153.5q0 -48 10.5 -91.5t29.5 -79t46 -60t59 -33.5q24 42 67 67t92 25q46 0 85.5 -21t59.5 -57q26 37 65 57.5t81 20.5q38 0 71.5 -16.5t58 -45.5t38.5 -68t14 -81v-449h-129v449q0 33 -19.5 56.5t-47.5 23.5
q-27 0 -46.5 -23.5t-19.5 -56.5v-449h-131v449q0 33 -19.5 56.5t-46.5 23.5q-29 0 -48 -23.5t-19 -56.5v-449h-132v449z" />
    <glyph glyph-name="uni0B35" unicode="&#xb35;" horiz-adv-x="1231" 
d="M801 173q-31 -31 -79.5 -48t-106.5 -17q-64 0 -122 24t-101.5 64.5t-68.5 95.5t-25 117q0 53 14 93q-58 15 -107 50.5t-84 84.5t-54 109t-19 125q0 99 45 185.5t122.5 151t180.5 102t219 37.5t220 -37.5t181.5 -102t122.5 -151t45 -185.5q0 -74 -24 -141.5t-69 -121.5
l-105 65q32 38 48.5 89t16.5 109q0 75 -34.5 140t-94 113.5t-139 76t-168.5 27.5t-168 -27.5t-138.5 -76t-94.5 -113.5t-35 -140q0 -52 15.5 -98.5t42.5 -82t64 -57.5t80 -25q47 49 108 75t126 26t122.5 -23.5t100 -65.5t67.5 -97t25 -117v-406h-129v173zM801 409
q0 36 -15 67.5t-40 55t-58.5 37t-72.5 13.5q-37 0 -70.5 -13.5t-58.5 -37t-40 -55t-15 -67.5t15 -67t40 -54.5t58.5 -37t70.5 -13.5q39 0 72.5 13.5t58.5 37t40 55t15 66.5zM615 489q34 0 57 -23.5t23 -56.5q0 -32 -23 -55.5t-57 -23.5q-32 0 -55 23.5t-23 55.5
q0 33 23 56.5t55 23.5z" />
    <glyph glyph-name="uni0B36" unicode="&#xb36;" horiz-adv-x="1295" 
d="M281 432q-46 8 -90.5 30t-79.5 55.5t-56 76.5t-21 92q0 61 32.5 114.5t89 93t130.5 62t156 22.5q-24 20 -38 55.5t-14 72.5q0 49 23 92.5t62.5 76.5t92 52.5t112.5 19.5q57 0 109.5 -15.5t97 -43.5t80 -66.5t57.5 -85.5v154h129v-1290h-129v806q0 84 -27 161t-74 135
t-109.5 92t-133.5 34q-32 0 -61 -10.5t-50.5 -27.5t-34 -40t-12.5 -47q0 -43 18.5 -79t47.5 -46q109 -17 217 -87l-58 -112q-63 36 -136.5 55t-155.5 19q-58 0 -110.5 -13t-92.5 -35.5t-63.5 -53t-23.5 -65.5q0 -31 17 -56t42 -43.5t56.5 -29t60.5 -11.5q47 62 112.5 94.5
t143.5 32.5q69 0 129 -28t105 -76.5t71 -113.5t26 -138q0 -69 -26 -131.5t-71 -109t-105 -74.5t-129 -28q-68 0 -128 28t-105 74.5t-71 109t-26 131.5q0 38 4 65.5t10 49.5zM796 319q0 45 -15.5 88t-42.5 76t-63 53t-78 20q-40 0 -76 -20t-63 -53t-42.5 -75.5t-15.5 -88.5
t15.5 -86.5t42.5 -71.5t63 -49t76 -18q42 0 78 19t63 49.5t42.5 71.5t15.5 85z" />
    <glyph glyph-name="uni0B37" unicode="&#xb37;" horiz-adv-x="1322" 
d="M259 277q0 70 24.5 126t67.5 86q-65 6 -120.5 35t-96 75.5t-63.5 106.5t-23 126q0 106 43.5 199.5t120 163.5t177.5 111t215 41q151 0 268 -49t179 -136v128h129v-1290h-129v184q-69 -100 -177 -155t-232 -55q-77 0 -146.5 24t-122 65t-83.5 96t-31 118zM998 317
l-277 331l-224 -172q-51 -35 -78.5 -88t-27.5 -111q0 -46 24 -80t60.5 -57t81 -34.5t85.5 -11.5q53 0 103.5 15.5t97 44t85.5 70.5t70 93zM642 739l-317 377q-70 -48 -108 -123.5t-38 -160.5q0 -48 18 -91t48.5 -76t71 -51.5t87.5 -18.5q35 0 94 36.5t144 107.5zM1051 872
q0 74 -35.5 138.5t-96 112.5t-142.5 76.5t-173 28.5q-47 0 -96.5 -13.5t-89.5 -39.5l633 -752v449z" />
    <glyph glyph-name="uni0B38" unicode="&#xb38;" horiz-adv-x="1303" 
d="M233 237v48l159 138q-76 23 -139 65.5t-108.5 98t-70.5 122t-25 136.5q0 103 44 194t119.5 159.5t176.5 108.5t215 40q66 0 128.5 -14.5t117 -40t100.5 -63.5t79 -86v147h129v-1202l66 -27l-53 -114zM1029 845q0 76 -34 145.5t-92.5 122.5t-136 84t-162.5 31t-162 -31
t-135 -84t-92 -122t-34 -146q0 -58 24.5 -111t67.5 -96t102.5 -73.5t127.5 -43.5l312 258l93 -93l-450 -374l571 -186v719z" />
    <glyph glyph-name="uni0B39" unicode="&#xb39;" horiz-adv-x="1196" 
d="M187 106v53l237 197q-51 30 -81 83.5t-30 115.5q0 9 1.5 21t4.5 19q-60 10 -111 40.5t-87.5 75t-57 100t-20.5 114.5q0 88 44.5 164.5t120 133.5t176 90.5t213.5 33.5q114 0 214.5 -33.5t176 -90.5t120 -133.5t44.5 -164.5q0 -133 -93 -244l-106 72q66 78 66 172
q0 63 -33.5 118t-91.5 96t-135 65t-162 24q-86 0 -163 -24t-135 -65t-91.5 -96t-33.5 -118q0 -43 15 -81.5t40 -67.5t58.5 -46t71.5 -17q22 48 67 86t104 60l53 -106q-66 -23 -105 -78t-39 -120q0 -31 12 -57.5t34 -47t51 -32.5t61 -12q34 0 62.5 11t49.5 30.5t33.5 46.5
t12.5 61v211h129v-582h-129v162q-21 -27 -61.5 -44.5t-96.5 -17.5q-24 0 -68 10l-133 -110l653 -123l-30 -109z" />
    <glyph glyph-name="uni0B3C" unicode="&#xb3c;" 
d="M-1014 -252q0 25 9 47t25 38.5t38 25.5t47 9q24 0 46 -9t38 -25.5t25 -38.5t9 -47q0 -24 -9 -46t-25 -38t-38 -25t-46 -9q-25 0 -47 9t-38 25t-25 38t-9 46z" />
    <glyph glyph-name="uni0B3D" unicode="&#xb3d;" horiz-adv-x="973" 
d="M749 1344l66 -89l-463 -325l479 -254l-470 -306l454 -304l-77 -89l-596 396l489 290l-489 252z" />
    <glyph glyph-name="uni0B3E" unicode="&#xb3e;" horiz-adv-x="413" 
d="M142 1290h129v-1290h-129v1290z" />
    <glyph glyph-name="uni0B3F" unicode="&#xb3f;" 
d="M-1202 1545q93 93 229 143t298 50q163 0 299.5 -50t229.5 -143l-91 -92q-78 77 -191 118t-245 41q-133 0 -246 -41t-190 -118z" />
    <glyph glyph-name="uni0B40" unicode="&#xb40;" horiz-adv-x="562" 
d="M292 1162l-198 -171l-80 105l278 225q63 53 92 53q16 0 26.5 -11.5t10.5 -28.5v-1334h-129v1162z" />
    <glyph glyph-name="uni0B41" unicode="&#xb41;" 
d="M-733 -343q0 39 19 71t51 54t75.5 34t93.5 12q67 0 116 -18.5t86 -44.5q9 16 15 48t6 81v132h129v-130q0 -56 -12 -114t-37 -99q93 -93 205 -93q49 0 93 28.5t72 77.5l79 -79q-39 -67 -106 -106.5t-144 -39.5q-67 0 -140 28t-139 84q-37 -44 -96.5 -71.5t-122.5 -27.5
q-52 0 -96 13t-76.5 35.5t-51.5 54t-19 70.5zM-339 -343q-22 35 -66 57t-90 22q-55 0 -93.5 -23.5t-38.5 -55.5q0 -34 38.5 -57t93.5 -23q41 0 81.5 18.5t74.5 61.5z" />
    <glyph glyph-name="uni0B42" unicode="&#xb42;" 
d="M-510 -417q0 47 17 87.5t48 71t75 48.5t98 18v219h129v-338h-130q-55 0 -86.5 -31t-31.5 -75t33.5 -74.5t98.5 -30.5q32 0 61.5 10t51.5 27.5t36.5 42t16.5 52.5l112 26l356 -197l-53 -93l-317 172q-33 -74 -104 -116.5t-160 -42.5q-60 0 -106.5 17.5t-78.5 48.5
t-49 71.5t-17 86.5z" />
    <glyph glyph-name="uni0B43" unicode="&#xb43;" 
d="M-522 -337q0 61 25 115t68 95t100.5 64t123.5 23v-112q-41 -4 -77.5 -20t-63.5 -40.5t-42.5 -57t-15.5 -67.5q0 -29 13.5 -55.5t37 -46.5t55 -31.5t66.5 -11.5q32 0 61 8t51 22.5t34 33.5t12 41t-15 37.5t-37 15.5q-39 0 -66 -27l-66 80q21 25 55.5 39t77.5 14
q35 0 66 -12.5t54 -33.5t36.5 -50t13.5 -63q0 -45 -22.5 -85t-60.5 -69.5t-88.5 -46.5t-105.5 -17q-60 0 -112.5 21t-92 55.5t-62.5 81.5t-23 100z" />
    <glyph glyph-name="uni0B47" unicode="&#xb47;" horiz-adv-x="993" 
d="M70 660q0 141 43.5 265.5t119 218t176.5 148.5t215 55q65 0 123 -17t101 -45.5t68.5 -65t25.5 -76.5q0 -34 -19 -54t-48 -20q-27 0 -46 14.5t-33 38.5q-28 49 -74 77.5t-98 28.5q-86 0 -163.5 -44.5t-134 -120t-90 -176t-33.5 -214.5q33 16 85.5 28t98.5 12
q115 0 212.5 -34.5t167.5 -96.5t109.5 -148t39.5 -189q0 -64 -21.5 -114.5t-60 -85.5t-93.5 -53t-122 -18q-113 0 -213 55t-175 148.5t-118 218.5t-43 264zM783 245q0 72 -29 136t-82 112t-125 75t-160 27q-50 0 -95.5 -13.5t-78.5 -33.5q9 -93 44 -175.5t89 -144.5
t124.5 -98t147.5 -36q39 0 70 12.5t52 33t32 47.5t11 58z" />
    <glyph glyph-name="uni0B48" unicode="&#xb48;" horiz-adv-x="993" 
d="M70 660q0 141 43.5 265.5t119 218t176.5 148.5t215 55q65 0 123 -17t101 -45.5t68.5 -65t25.5 -76.5q0 -34 -19 -54t-48 -20q-27 0 -46 14.5t-33 38.5q-28 49 -74 77.5t-98 28.5q-86 0 -163.5 -44.5t-134 -120t-90 -176t-33.5 -214.5q33 16 85.5 28t98.5 12
q115 0 212.5 -34.5t167.5 -96.5t109.5 -148t39.5 -189q0 -64 -21.5 -114.5t-60 -85.5t-93.5 -53t-122 -18q-113 0 -213 55t-175 148.5t-118 218.5t-43 264zM783 245q0 72 -29 136t-82 112t-125 75t-160 27q-50 0 -95.5 -13.5t-78.5 -33.5q9 -93 44 -175.5t89 -144.5
t124.5 -98t147.5 -36q39 0 70 12.5t52 33t32 47.5t11 58zM773 1545l79 100q37 -33 85.5 -49.5t100.5 -16.5q41 0 107.5 16.5t156.5 49.5q90 32 160 49t117 17q51 0 96 -18.5t79 -50t53.5 -74t19.5 -90.5v-157h-129v157q0 22 -9 41.5t-25 34.5t-38 23t-47 8q-49 0 -117 -16.5
t-153 -48.5q-176 -67 -271 -67q-75 0 -143 23.5t-122 68.5z" />
    <glyph glyph-name="uni0B4B" unicode="&#xb4b;" horiz-adv-x="1833" 
d="M70 660q0 141 43.5 265.5t119 218t176.5 148.5t215 55q65 0 123 -17t101 -45.5t68.5 -65t25.5 -76.5q0 -34 -19 -54t-48 -20q-27 0 -46 14.5t-33 38.5q-28 49 -74 77.5t-98 28.5q-86 0 -163.5 -44.5t-134 -120t-90 -176t-33.5 -214.5q33 16 85.5 28t98.5 12
q115 0 212.5 -34.5t167.5 -96.5t109.5 -148t39.5 -189q0 -64 -21.5 -114.5t-60 -85.5t-93.5 -53t-122 -18q-113 0 -213 55t-175 148.5t-118 218.5t-43 264zM783 245q0 72 -29 136t-82 112t-125 75t-160 27q-50 0 -95.5 -13.5t-78.5 -33.5q9 -93 44 -175.5t89 -144.5
t124.5 -98t147.5 -36q39 0 70 12.5t52 33t32 47.5t11 58zM1562 1290h129v-1290h-129v1290z" />
    <glyph glyph-name="uni0B4C" unicode="&#xb4c;" horiz-adv-x="1967" 
d="M70 660q0 141 43.5 265.5t119 218t176.5 148.5t215 55q65 0 123 -17t101 -45.5t68.5 -65t25.5 -76.5q0 -34 -19 -54t-48 -20q-27 0 -46 14.5t-33 38.5q-28 49 -74 77.5t-98 28.5q-86 0 -163.5 -44.5t-134 -120t-90 -176t-33.5 -214.5q33 16 85.5 28t98.5 12
q115 0 212.5 -34.5t167.5 -96.5t109.5 -148t39.5 -189q0 -64 -21.5 -114.5t-60 -85.5t-93.5 -53t-122 -18q-113 0 -213 55t-175 148.5t-118 218.5t-43 264zM783 245q0 72 -29 136t-82 112t-125 75t-160 27q-50 0 -95.5 -13.5t-78.5 -33.5q9 -93 44 -175.5t89 -144.5
t124.5 -98t147.5 -36q39 0 70 12.5t52 33t32 47.5t11 58zM1698 1438q0 29 -13 53.5t-35 42.5t-50.5 28.5t-60.5 10.5q-22 0 -58.5 -6t-80.5 -15t-92 -19q-47 -11 -91 -20t-81 -14.5t-59 -5.5q-94 0 -172 23.5t-132 68.5l66 98q125 -72 238 -72q78 0 231 47q153 46 231 46
q58 0 110.5 -21t91.5 -57.5t62.5 -84.5t23.5 -103v-1438h-129v1438z" />
    <glyph glyph-name="uni0B4D" unicode="&#xb4d;" 
d="M-284 -58h143l280 -396h-158z" />
    <glyph glyph-name="uni0B56" unicode="&#xb56;" 
d="M-1196 1545l79 100q37 -33 85.5 -49.5t100.5 -16.5q41 0 107.5 16.5t156.5 49.5q90 32 160 49t117 17q51 0 96 -18.5t79 -50t53.5 -74t19.5 -90.5v-157h-129v157q0 22 -9 41.5t-25 34.5t-38 23t-47 8q-49 0 -117 -16.5t-153 -48.5q-176 -67 -271 -67q-75 0 -143 23.5
t-122 68.5z" />
    <glyph glyph-name="uni0B57" unicode="&#xb57;" horiz-adv-x="413" 
d="M142 1438q0 29 -13 53.5t-35 42.5t-50.5 28.5t-60.5 10.5q-22 0 -58.5 -6t-80.5 -15t-92 -19q-47 -11 -91 -20t-81 -14.5t-59 -5.5q-94 0 -172 23.5t-132 68.5l66 98q125 -72 238 -72q78 0 231 47q153 46 231 46q58 0 110.5 -21t91.5 -57.5t62.5 -84.5t23.5 -103v-1438
h-129v1438z" />
    <glyph glyph-name="uni0B5C" unicode="&#xb5c;" horiz-adv-x="1275" 
d="M321 587q22 46 66.5 87.5t94.5 64.5l66 -104q-81 -47 -126 -125t-45 -167q0 -50 18.5 -96t51 -80t75.5 -54t92 -20t91.5 15t75.5 40t51.5 58.5t18.5 70.5q0 25 -9.5 47.5t-25.5 39.5t-36.5 27t-42.5 10l-128 -139l-88 81l345 383l91 -78l-131 -146q33 -5 62 -26
t50.5 -50.5t33.5 -67.5t12 -81q0 -63 -29.5 -118t-80 -96t-117.5 -65t-143 -24t-143 29t-117.5 79.5t-80 117.5t-29.5 143q0 49 6.5 80.5t13.5 49.5q-50 17 -89.5 50.5t-67 79.5t-42.5 101.5t-15 114.5q0 110 47 206t127 167.5t186.5 113t226.5 41.5t228 -42t188 -113.5
t127 -167.5t47 -205q0 -125 -67 -239l-119 66q53 92 53 173q0 84 -35.5 159t-97 130.5t-143 87.5t-173.5 32q-94 0 -178.5 -32t-148 -87.5t-100 -130.5t-36.5 -159q0 -41 9 -79t26.5 -69t43 -53t60.5 -31zM531 -252q0 25 9 47t25 38.5t38 25.5t47 9q24 0 46 -9t38 -25.5
t25 -38.5t9 -47q0 -24 -9 -46t-25 -38t-38 -25t-46 -9q-25 0 -47 9t-38 25t-25 38t-9 46z" />
    <glyph glyph-name="uni0B5D" unicode="&#xb5d;" horiz-adv-x="1267" 
d="M312 590q27 50 63.5 87.5t75.5 60.5l88 -90q-73 -52 -115 -129.5t-42 -162.5q0 -52 20.5 -97t56 -79t82.5 -54t101 -20q62 0 79 19q-67 47 -104.5 115t-37.5 143q0 52 19 97.5t51 80t76 54.5t93 20q51 0 96.5 -20t79.5 -54.5t54 -80t20 -97.5q0 -70 -36.5 -139.5
t-102.5 -124.5l99 -79l-79 -93l-117 89q-79 -55 -190 -55q-80 0 -151.5 29t-125 80t-85 119t-31.5 147q0 44 5 72.5t12 43.5q-51 17 -91 50.5t-67.5 80t-42.5 102t-15 114.5q0 110 47 206t127 167.5t186.5 113t226.5 41.5t228 -42t188 -113.5t127 -167.5t47 -205
q0 -125 -67 -239l-119 66q53 92 53 173q0 84 -35.5 159t-97 130.5t-143 87.5t-173.5 32q-94 0 -178.5 -32t-148 -87.5t-100 -130.5t-36.5 -159q0 -81 33.5 -144.5t96.5 -84.5zM939 383q0 27 -9.5 49.5t-25.5 40t-38 27.5t-48 10q-23 0 -44 -10t-36.5 -27.5t-24.5 -40
t-9 -49.5q0 -51 33.5 -104t93.5 -95q50 37 79 89t29 110zM512 -252q0 25 9 47t25 38.5t38 25.5t47 9q24 0 46 -9t38 -25.5t25 -38.5t9 -47q0 -24 -9 -46t-25 -38t-38 -25t-46 -9q-25 0 -47 9t-38 25t-25 38t-9 46z" />
    <glyph glyph-name="uni0B5F" unicode="&#xb5f;" horiz-adv-x="1373" 
d="M342 290q0 65 27 106q-16 -5 -35 -16t-38.5 -25t-35.5 -31t-24 -34q25 -11 39 -39.5t14 -66.5q0 -37 -31 -64t-75 -27q-23 0 -44.5 11t-38 29.5t-26.5 42.5t-10 48q0 39 17 78t48 75t75.5 68t98.5 57q-48 22 -87 60t-67 87.5t-42.5 107.5t-14.5 120q0 97 40.5 183
t109.5 149.5t161 100.5t197 37q66 0 127 -14.5t113.5 -41t93.5 -64.5t68 -84v147h129v-814q39 -6 71.5 -25t55.5 -45.5t36 -59.5t13 -69q0 -67 -28.5 -115t-63.5 -72l130 -64l-65 -105l-278 145q92 42 139 94t47 117q0 20 -10.5 36.5t-26.5 29.5t-37 20t-43 7
q-66 0 -104 -44.5t-56 -126.5q-12 -51 -35 -92t-58 -71t-82 -46t-106 -16q-60 0 -112 25.5t-91.5 68.5t-62 100.5t-22.5 121.5zM813 272q10 49 30.5 86.5t47 63.5t55.5 39.5t56 14.5v369q0 79 -32 148.5t-87 121.5t-128 82.5t-155 30.5q-78 0 -146 -27.5t-119.5 -75.5
t-81.5 -112t-30 -136q0 -53 14.5 -102t40.5 -89.5t63 -71t81 -46.5l224 145l79 -105l-132 -79q-55 -34 -86.5 -96.5t-31.5 -142.5q0 -40 12 -76t33.5 -63t50.5 -42.5t61 -15.5q79 0 121.5 51t59.5 128z" />
    <glyph glyph-name="uni0B60" unicode="&#xb60;" horiz-adv-x="1298" 
d="M334 562q41 53 104.5 82t136.5 29q69 0 129 -28t105 -76.5t71 -113.5t26 -138q0 -69 -26 -131.5t-71 -109t-105 -74.5t-129 -28q-68 0 -128 28t-105 74.5t-71 109t-26 131.5q0 38 6.5 77t19.5 64q-47 24 -87 62.5t-70 86.5t-47 105t-17 120q0 107 45.5 200.5t122.5 163
t180.5 110.5t219.5 41q126 0 229.5 -42.5t175.5 -117.5t111.5 -176.5t39.5 -218.5q0 -62 -21.5 -113.5t-58.5 -83.5q37 -22 58.5 -53.5t21.5 -65.5q0 -52 -27 -93q36 -17 58 -53t22 -78q0 -40 -21.5 -75.5t-58.5 -57.5l158 -225l-92 -78l-238 343q49 0 84 27t35 66
q0 24 -10.5 46t-28.5 38t-42 25t-51 9q35 13 57 42t22 64t-29.5 64t-76.5 42q51 42 78.5 97t27.5 113q0 101 -34 182t-92 137t-135 86.5t-162 30.5q-88 0 -166.5 -32t-138.5 -86.5t-95.5 -126t-35.5 -151.5q0 -52 13.5 -96.5t35 -79t48.5 -59t55 -35.5zM774 319
q0 45 -15.5 88t-42.5 76t-63 53t-78 20q-40 0 -76 -20t-63 -53t-42.5 -75.5t-15.5 -88.5t15.5 -86.5t42.5 -71.5t63 -49t76 -18q42 0 78 19t63 49.5t42.5 71.5t15.5 85z" />
    <glyph glyph-name="uni0B61" unicode="&#xb61;" horiz-adv-x="1127" 
d="M515 802q62 12 115.5 36.5t92.5 57.5t61 72t22 82q0 39 -17.5 72t-47.5 56t-70.5 36.5t-88.5 13.5q-47 0 -88 -13t-72 -35.5t-48.5 -54t-17.5 -68.5h-132q0 60 28.5 112.5t77.5 92.5t113.5 62.5t138.5 22.5q73 0 137.5 -23.5t113 -64t77 -94t28.5 -115.5
q0 -61 -28 -117.5t-77 -103.5t-116.5 -81.5t-148.5 -49.5q-84 -14 -156.5 -46t-126 -75.5t-83.5 -95t-30 -106.5q0 -50 27 -94t74 -76.5t109.5 -51.5t132.5 -19q0 76 27 143t74 117t109.5 79t133.5 29q49 0 92.5 -17t75.5 -46t50.5 -67t18.5 -82q0 -59 -36 -112t-97 -93
t-142.5 -62.5t-172.5 -22.5q5 -63 56 -148t141 -182l-92 -93q-108 112 -169.5 220.5t-68.5 202.5q-97 0 -183 29t-151 79.5t-103 117.5t-38 144q0 74 36 144t100 128t150.5 100t188.5 60zM965 290q0 34 -31 57t-75 23t-82 -18.5t-67 -51.5t-45.5 -76t-16.5 -92
q64 0 121.5 12t101.5 33.5t69 50.5t25 62z" />
    <glyph glyph-name="uni0B66" unicode="&#xb66;" horiz-adv-x="1393" 
d="M235 660q0 93 36.5 174.5t99 142.5t147 96.5t179.5 35.5t179 -35.5t146.5 -96.5t99 -142.5t36.5 -174.5q0 -92 -36.5 -173.5t-99 -142.5t-146.5 -96.5t-179 -35.5t-179.5 35.5t-147 96.5t-99 142.5t-36.5 173.5zM1027 660q0 69 -26 129t-71 105t-105 71t-128 26
q-67 0 -128 -26t-105.5 -71t-71 -105t-26.5 -129q0 -67 26.5 -127.5t71 -105t105.5 -71t128 -26.5q68 0 128 26.5t105 71t71 105t26 127.5z" />
    <glyph glyph-name="uni0B67" unicode="&#xb67;" horiz-adv-x="1393" 
d="M337 964q0 78 28 148t78 122t116.5 82.5t140.5 30.5t138.5 -28.5t113 -77t77 -113t28.5 -137.5q0 -74 -28.5 -138.5t-77 -113t-113 -76.5t-138.5 -28q-58 0 -109.5 20.5t-88.5 57.5q37 -203 173 -370q136 -168 343 -264l-66 -105q-281 132 -449 400q-166 270 -166 590z
M925 991q0 49 -17.5 92t-48.5 75.5t-71.5 51t-87.5 18.5q-46 0 -86.5 -20t-71.5 -54t-48.5 -80t-17.5 -96q0 -47 18 -87.5t48.5 -71t71 -48.5t86.5 -18q47 0 87.5 19t71.5 52t48.5 76t17.5 91z" />
    <glyph glyph-name="uni0B68" unicode="&#xb68;" horiz-adv-x="1393" 
d="M1057 964q0 -320 -167 -590q-168 -268 -449 -400l-66 105q207 96 344 264q135 167 172 370q-37 -37 -88.5 -57.5t-109.5 -20.5q-74 0 -138.5 28t-113 76.5t-76.5 113t-28 138.5q0 73 28 137.5t76.5 113t113 77t138.5 28.5q76 0 141.5 -30.5t115.5 -82.5t78.5 -122
t28.5 -148zM468 991q0 -48 18 -91t48.5 -76t71 -52t87.5 -19q46 0 86.5 18t71 48.5t48.5 71t18 87.5q0 50 -17.5 96t-48.5 80t-71.5 54t-86.5 20q-47 0 -87.5 -18.5t-71 -51t-48.5 -75.5t-18 -92z" />
    <glyph glyph-name="uni0B69" unicode="&#xb69;" horiz-adv-x="1393" 
d="M632 965q0 53 -13 100.5t-34 84t-50 57.5t-63 21q-46 0 -87 -28.5t-71.5 -77.5t-48 -113.5t-17.5 -136.5q0 -55 11.5 -105.5t31 -88.5t45.5 -60.5t56 -22.5q29 0 48 23t19 55q0 26 -22 51t-58 42l40 112q36 -2 67 -19.5t54.5 -46t37 -64t13.5 -75.5q0 -42 -15.5 -81
t-42.5 -68t-63.5 -45.5t-77.5 -16.5q-58 0 -108.5 33t-87.5 89t-59 130t-22 158q0 97 28.5 183.5t77.5 151t114 102.5t140 38q85 0 149.5 -47t84.5 -125q37 79 103 125.5t144 46.5q66 0 124.5 -26t102.5 -71t69.5 -105t25.5 -128v-1017h-129v1017q0 42 -15.5 80.5t-41 68
t-60 46t-71.5 16.5q-40 0 -76.5 -20.5t-64 -56.5t-43.5 -84t-16 -102v-965h-129v965z" />
    <glyph glyph-name="uni0B6A" unicode="&#xb6a;" horiz-adv-x="1393" 
d="M320 330q0 137 77 261q79 124 214 202q-121 70 -241.5 206.5t-234.5 334.5l132 53q77 -164 192 -299t260 -217q100 54 206 178.5t214 311.5l119 -53q-105 -179 -213 -309t-218 -207q66 -46 119.5 -100.5t90 -112.5t56.5 -117.5t20 -117.5q0 -81 -25.5 -146t-91.5 -123
q-116 -101 -280 -101q-81 0 -153 28.5t-126 77t-85.5 113t-31.5 137.5zM980 343q0 50 -18 101t-52 99t-83 92t-111 78q-59 -27 -108 -68t-84 -91.5t-54 -107t-19 -116.5q0 -49 21.5 -92t57 -75.5t84 -51t102.5 -18.5t102.5 20t84.5 54t56.5 80t20.5 96z" />
    <glyph glyph-name="uni0B6B" unicode="&#xb6b;" horiz-adv-x="1392" 
d="M280 304q0 43 17.5 87.5t50.5 87.5t79 82.5t104 73.5q-100 36 -204.5 130t-205.5 239l106 80q75 -129 160 -214.5t170 -116.5q-58 58 -88 126t-30 138q0 68 27.5 128t74 105t109 71t132.5 26q68 0 128 -27t105 -74.5t71 -110t26 -131.5q0 -87 -67 -175.5t-183 -155.5
q58 -20 109.5 -48t100.5 -66.5t97.5 -91.5t101.5 -124l-106 -79q-58 101 -128.5 171.5t-148.5 106.5q51 -74 78 -141.5t27 -123.5q0 -62 -28 -117.5t-76.5 -96.5t-114 -65t-137.5 -24q-73 0 -138.5 26t-113.5 71t-76.5 105t-28.5 128zM862 277q0 91 -42 172t-117 133
q-63 -17 -116.5 -46t-92.5 -66t-60 -79.5t-21 -86.5q0 -43 18 -81.5t48.5 -67.5t71 -45.5t86.5 -16.5q47 0 87.5 15t71 40t48.5 58.5t18 70.5zM980 1004q0 45 -15.5 85.5t-42.5 71.5t-63 49t-77 18q-43 0 -81.5 -16.5t-67 -45t-45.5 -67.5t-17 -82q0 -70 42 -142.5
t117 -135.5q57 26 102.5 58t78.5 67t51 70.5t18 69.5z" />
    <glyph glyph-name="uni0B6C" unicode="&#xb6c;" horiz-adv-x="1393" 
d="M148 0v132h185q322 0 551 209q228 209 228 504q0 79 -26 148.5t-70.5 121.5t-105 82.5t-128.5 30.5q-45 0 -86 -12t-72 -34t-49 -50.5t-18 -62.5q0 -27 28.5 -58.5t77.5 -59.5q62 -36 97.5 -85t35.5 -100q0 -55 -24.5 -103t-66 -84t-97 -56.5t-117.5 -20.5
q-96 0 -184.5 56.5t-145.5 154.5l106 66q52 -75 111 -117t113 -42q35 0 66 10.5t55 28.5t37.5 42t13.5 52q0 35 -32 70.5t-87 61.5q-55 32 -86.5 82t-31.5 104q0 58 29 108t77 87.5t113.5 59t136.5 21.5q95 0 179.5 -40t148 -108.5t99.5 -159.5t36 -194q0 -350 -267 -597
q-267 -248 -645 -248h-185z" />
    <glyph glyph-name="uni0B6D" unicode="&#xb6d;" horiz-adv-x="1393" 
d="M142 -26v120h131q353 0 599 216q248 216 248 522q0 81 -35.5 153.5t-95.5 126.5t-140.5 85t-171.5 31q-82 0 -155.5 -28.5t-129 -77.5t-87.5 -114.5t-32 -140.5q0 -25 6 -54.5t19 -48.5q28 77 90.5 125.5t142.5 48.5q53 0 100.5 -19t82 -51t55 -75.5t20.5 -92.5
t-20 -92.5t-54 -76t-79.5 -51t-97.5 -18.5q-81 0 -153.5 32t-126 87t-85 129t-31.5 157q0 99 42.5 186t115.5 152.5t170.5 103.5t206.5 38q118 0 222.5 -41t182.5 -111t123.5 -163.5t45.5 -199.5q0 -355 -286 -606q-286 -252 -692 -252h-131zM657 700q0 44 -37 75t-89 31
q-27 0 -52.5 -11.5t-47 -31.5t-35.5 -47t-21 -58q16 -34 61.5 -55t101.5 -21q24 0 46 9t38.5 25t25.5 38t9 46z" />
    <glyph glyph-name="uni0B6E" unicode="&#xb6e;" horiz-adv-x="1393" 
d="M254 1290h885v-119h-753v-1171h-132v1290z" />
    <glyph glyph-name="uni0B6F" unicode="&#xb6f;" horiz-adv-x="1392" 
d="M280 713q0 84 22 168t62.5 162t98.5 149t132 129h15l370 -383v383h132v-648q0 -5 -8 -9t-18 -4l-489 497q-93 -82 -138.5 -197.5t-45.5 -246.5q0 -112 39 -209.5t107.5 -176t160 -138t195.5 -96.5l-53 -119q-114 40 -219.5 112.5t-185.5 168.5t-128.5 212.5t-48.5 245.5z
" />
    <glyph glyph-name="uni0B70" unicode="&#xb70;" horiz-adv-x="1253" 
d="M142 946l124 45l298 -621l436 898l111 -40l-528 -1122h-40zM470 1069l99 104l101 -104l-101 -104z" />
    <glyph glyph-name="uni0B71" unicode="&#xb71;" horiz-adv-x="1113" 
d="M368 439q-8 -21 -8 -56q0 -46 15.5 -87t44.5 -70.5t72 -47t98 -17.5q59 0 102 19.5t72 50.5t43.5 71t14.5 81v49q-114 -46 -222 -46q-156 0 -232 53zM58 862q0 125 55 239t157 203l92 -66q-82 -72 -126.5 -168.5t-44.5 -207.5q0 -76 31.5 -142t87 -114.5t130.5 -76
t160 -27.5q64 0 119 15.5t96.5 42t64.5 62.5t23 77q0 34 -13 58.5t-33.5 41t-46.5 27t-51 14.5q-35 -21 -83 -39.5t-99 -29.5l-43 92q71 22 129 50.5t100 60.5t65 68t23 75q0 49 -42.5 80t-102.5 31q-74 0 -110 -39.5t-36 -94.5q0 -12 11 -34t11 -43q0 -19 -16 -32.5
t-40 -13.5q-19 0 -37 10t-31.5 26.5t-21.5 39t-8 47.5q0 53 22.5 98.5t61 80t88.5 54.5t106 20t106.5 -17.5t88 -47t60 -69t22.5 -84.5q0 -54 -33 -110.5t-91 -94.5q85 -29 131 -83t46 -134q0 -36 -8 -67.5t-20 -57t-27.5 -44t-29.5 -30.5v-508h-129v138q-39 -46 -101.5 -72
t-136.5 -26q-78 0 -144 24.5t-113.5 69.5t-73.5 108.5t-26 140.5q0 58 25 114q-93 69 -143.5 164.5t-50.5 200.5z" />
    <glyph glyph-name="uni200B" unicode="&#x200b;" 
 />
    <glyph glyph-name="afii61664" unicode="&#x200c;" horiz-adv-x="390" 
d="M142 1981h106v-2629h-106v2629z" />
    <glyph glyph-name="afii301" unicode="&#x200d;" horiz-adv-x="390" 
d="M249 1535l-1 -2183h-106l-1 2183l-200 -202l-74 73l256 252l-256 250l74 73l255 -255l250 255l74 -73l-253 -250l252 -252l-73 -73z" />
    <glyph glyph-name="endash" unicode="&#x2013;" horiz-adv-x="1036" 
d="M0 473v113h1036v-113h-1036z" />
    <glyph glyph-name="emdash" unicode="&#x2014;" horiz-adv-x="2113" 
d="M0 473v113h2113v-113h-2113z" />
    <glyph glyph-name="quoteleft" unicode="&#x2018;" horiz-adv-x="343" 
d="M173 1209h75v-171h-159v126q0 49 4 87.5t11.5 72.5t20.5 66t32 64h97q-41 -66 -61 -125.5t-20 -119.5z" />
    <glyph glyph-name="quoteright" unicode="&#x2019;" horiz-adv-x="343" 
d="M186 1038h-97q80 124 80 243h-74v173h159v-127q0 -47 -4 -86.5t-12 -73.5t-21 -66t-31 -63z" />
    <glyph glyph-name="quotesinglbase" unicode="&#x201a;" horiz-adv-x="448" 
d="M235 -244h-98q81 125 81 244h-72v173h158v-127q0 -49 -3.5 -88t-12.5 -73.5t-22 -65.5t-31 -63z" />
    <glyph glyph-name="quotedblleft" unicode="&#x201c;" horiz-adv-x="641" 
d="M472 1209h71v-171h-159v126q0 49 4 87.5t12.5 72.5t21.5 66t29 64h101q-41 -66 -60.5 -125.5t-19.5 -119.5zM173 1209h75v-171h-159v126q0 49 4 87.5t11.5 72.5t20.5 66t32 64h97q-41 -66 -61 -125.5t-20 -119.5z" />
    <glyph glyph-name="quotedblright" unicode="&#x201d;" horiz-adv-x="641" 
d="M482 1038h-98q42 64 62 124t20 119h-73v173h159v-127q0 -47 -4 -86.5t-13 -73.5t-21.5 -66t-31.5 -63zM186 1038h-97q80 124 80 243h-74v173h159v-127q0 -47 -4 -86.5t-12 -73.5t-21 -66t-31 -63z" />
    <glyph glyph-name="quotedblbase" unicode="&#x201e;" horiz-adv-x="641" 
d="M482 -244h-98q82 125 82 244h-73v173h159v-127q0 -49 -4 -88t-13 -73.5t-21.5 -65.5t-31.5 -63zM186 -244h-97q80 125 80 244h-74v173h159v-127q0 -49 -4 -88t-12 -73.5t-21 -65.5t-31 -63z" />
    <glyph glyph-name="dagger" unicode="&#x2020;" horiz-adv-x="1004" 
d="M562 964l-10 -1183h-98l-13 1183l-373 9v103l373 10l13 368h98l10 -368l376 -10v-103z" />
    <glyph glyph-name="daggerdbl" unicode="&#x2021;" horiz-adv-x="1004" 
d="M562 150l-10 -368v-1l-98 1l-13 368l-373 11v101l373 10l5 345l-5 345l-373 11v103l373 9l13 369h98l10 -369l376 -9v-103l-376 -11l-3 -345l3 -345l376 -10v-101z" />
    <glyph glyph-name="bullet" unicode="&#x2022;" horiz-adv-x="900" 
d="M730 706q0 -58 -22.5 -109t-60.5 -89t-89.5 -60t-109.5 -22q-57 0 -107.5 22t-88 60t-59 89t-21.5 109q0 56 21.5 107t59 88.5t88 59.5t107.5 22q58 0 109.5 -22t89.5 -59.5t60.5 -88.5t22.5 -107z" />
    <glyph glyph-name="ellipsis" unicode="&#x2026;" horiz-adv-x="1347" 
d="M1045 0v186h157v-186h-157zM596 0v186h156v-186h-156zM146 0v186h158v-186h-158z" />
    <glyph glyph-name="perthousand" unicode="&#x2030;" horiz-adv-x="2701" 
d="M2583 450q0 -130 -24.5 -218.5t-67.5 -142.5t-99.5 -78t-121.5 -24q-64 0 -120 23.5t-98 77.5t-66 142.5t-24 219.5q0 136 24 225.5t66.5 142.5t100 74t124.5 21q63 0 118.5 -21t97.5 -74t66 -142.5t24 -225.5zM1791 450q0 -130 -24 -218.5t-66.5 -142.5t-99.5 -78
t-123 -24q-65 0 -121.5 23.5t-98.5 77.5t-65.5 142.5t-23.5 219.5q0 136 23.5 225.5t66.5 142.5t100 74t124 21q65 0 120.5 -21t97.5 -74t66 -142.5t24 -225.5zM529 0h-119l972 1454h118zM433 1467q65 0 121 -21.5t97.5 -74.5t65 -142t23.5 -225q0 -129 -24.5 -218
t-66 -143.5t-98.5 -78t-121 -23.5q-66 0 -122 23t-97.5 77t-65.5 143t-24 220q0 136 24 225t66 142t98.5 74.5t123.5 21.5zM2463 450q0 107 -13 178.5t-37 115t-59 61.5t-77 18q-47 0 -83.5 -18t-61 -62t-37.5 -115t-13 -178q0 -103 13 -174t38 -114t60.5 -62.5t79.5 -19.5
q43 0 77.5 19.5t60 62.5t39 114t13.5 174zM1669 450q0 107 -13 178.5t-36.5 115t-58 61.5t-78.5 18q-46 0 -82 -18t-61 -62t-38 -115t-13 -178q0 -103 13 -174t38 -114t60.5 -62.5t79.5 -19.5q42 0 77 19.5t60 62.5t38.5 114t13.5 174zM619 1004q0 107 -12 178.5t-36 114
t-58 60.5t-80 18t-82 -18t-60.5 -61t-37.5 -114t-13 -178q0 -102 13 -173t37.5 -115t60 -63.5t80.5 -19.5q42 0 76.5 19.5t59.5 63.5t38.5 115t13.5 173z" />
    <glyph glyph-name="guilsinglleft" unicode="&#x2039;" horiz-adv-x="655" 
d="M437 146l-348 378v62l348 384h125v-28l-347 -387l350 -382v-27h-128z" />
    <glyph glyph-name="guilsinglright" unicode="&#x203a;" horiz-adv-x="655" 
d="M218 146h-129v27l351 382l-350 387v28h128l347 -384v-62z" />
    <glyph glyph-name="fraction" unicode="&#x2044;" horiz-adv-x="1080" 
d="M152 0h-122l899 1454h121z" />
    <glyph glyph-name="uni2074" unicode="&#x2074;" horiz-adv-x="769" 
d="M586 782v-202h-110v202h-431v86l425 586h116v-579h133v-93h-133zM481 1336q-8 -10 -21.5 -30t-27.5 -42q-15 -22 -29.5 -42.5t-24.5 -34.5l-230 -312h328v314q0 18 0.5 39t1.5 41t2 38q0 18 1 29z" />
    <glyph glyph-name="uni20A8" unicode="&#x20a8;" horiz-adv-x="2263" 
d="M1091 0l-396 623h-348v-623h-148v1454h516q118 0 211.5 -28t158 -80t99 -127.5t34.5 -172.5q0 -68 -21.5 -134.5t-66.5 -122t-116 -94t-170 -53.5l423 -642h-176zM1067 1045q0 71 -25 125t-73 91t-115 55.5t-152 18.5h-355v-595h362q93 0 161 24t111 64.5t64.5 97
t21.5 119.5zM2170 292q0 -73 -29 -130.5t-84.5 -98t-136 -62.5t-183.5 -22q-92 0 -166.5 13.5t-131 44.5t-94.5 83.5t-56 129.5l132 29q14 -60 41.5 -98t68.5 -60t93 -29.5t113 -7.5q64 0 118.5 11.5t95 35.5t63 60.5t22.5 87.5q0 55 -28.5 89t-76.5 57t-111 38.5t-131 30.5
q-66 16 -129.5 34.5t-113.5 50t-81 79.5t-31 120q0 137 104 215t304 78q77 0 144 -15t120 -46.5t89 -81.5t49 -119l-130 -17q-9 50 -34 83.5t-62 53.5t-82 28.5t-94 8.5q-137 0 -206 -47t-69 -127q0 -48 23.5 -79.5t64.5 -52.5t99 -36t128 -31t139.5 -35.5t125 -52.5
t89.5 -84t34 -129z" />
    <glyph glyph-name="Euro" unicode="&#x20ac;" horiz-adv-x="1262" 
d="M213 940q17 119 57 217.5t109 169.5t168 110t235 39q135 0 243 -38t179 -93l-68 -99q-77 54 -168 82.5t-188 28.5q-100 0 -174.5 -27.5t-125 -80.5t-80.5 -130.5t-44 -178.5h596v-91h-605q-3 -29 -3 -58v-60q0 -29 1 -55.5t2 -52.5h605v-93h-596q30 -223 135 -328
t295 -105q63 0 117 10t100.5 27.5t86 39t71.5 44.5l59 -101q-42 -29 -88.5 -54.5t-100 -44t-116 -29t-137.5 -10.5q-127 0 -224 37.5t-167 108t-113 173t-61 232.5h-133v93h124q-4 53 -4 108q0 60 4 118h-124v91h133z" />
    <glyph glyph-name="trademark" unicode="&#x2122;" horiz-adv-x="1602" 
d="M1338 792v370v167l-5 -11q-3 -3 -3 -8q-1 -5 -3 -7l-214 -511h-82l-143 360q-2 3 -12 30t-23 60q-15 39 -33 87q0 -4 -1 -9q-2 -11 -2 -16v-512h-95v662h141l204 -516q1 -1 3 -4q1 -4 3 -6q3 -4 4 -8q19 45 34 81q13 31 23 57t12 28l152 368h135v-662h-95zM387 1370v-578
h-97v578h-222v84h545v-84h-226z" />
    <glyph glyph-name="minus" unicode="&#x2212;" horiz-adv-x="689" 
d="M14 726h661v-131h-661v131z" />
    <glyph glyph-name="uni25CC" unicode="&#x25cc;" horiz-adv-x="1486" 
d="M743 1374q39 0 66.5 -28t27.5 -68q0 -38 -27.5 -66t-66.5 -28q-40 0 -67.5 28t-27.5 66q0 40 27.5 68t67.5 28zM743 137q39 0 66.5 -28t27.5 -66q0 -40 -27.5 -68t-66.5 -28q-40 0 -67.5 28t-27.5 68q0 38 27.5 66t67.5 28zM124 756q40 0 67.5 -28t27.5 -68t-27.5 -67.5
t-67.5 -27.5q-39 0 -66.5 27.5t-27.5 67.5t27.5 68t66.5 28zM1361 756q40 0 67.5 -28t27.5 -68t-27.5 -67.5t-67.5 -27.5t-68 27.5t-28 67.5t28 68t68 28zM209 446q40 0 67.5 -27.5t27.5 -67.5q0 -39 -27.5 -66.5t-67.5 -27.5t-67.5 27.5t-27.5 66.5q0 40 27.5 67.5
t67.5 27.5zM1278 1064q40 0 68 -27.5t28 -66.5q0 -40 -28 -67.5t-68 -27.5q-38 0 -66 27.5t-28 67.5q0 39 28 66.5t66 27.5zM1051 1291q40 0 68 -27.5t28 -66.5q0 -40 -28 -67.5t-68 -27.5t-67.5 27.5t-27.5 67.5q0 39 27.5 66.5t67.5 27.5zM433 222q40 0 68 -28t28 -68
t-28 -68t-68 -28t-67.5 28t-27.5 68t27.5 68t67.5 28zM209 1064q40 0 67.5 -27.5t27.5 -66.5q0 -40 -27.5 -67.5t-67.5 -27.5t-67.5 27.5t-27.5 67.5q0 39 27.5 66.5t67.5 27.5zM1278 446q40 0 68 -27.5t28 -67.5q0 -39 -28 -66.5t-68 -27.5q-38 0 -66 27.5t-28 66.5
q0 40 28 67.5t66 27.5zM433 1291q40 0 68 -27.5t28 -66.5q0 -40 -28 -67.5t-68 -27.5t-67.5 27.5t-27.5 67.5q0 39 27.5 66.5t67.5 27.5zM1051 222q40 0 68 -28t28 -68t-28 -68t-68 -28t-67.5 28t-27.5 68t27.5 68t67.5 28z" />
    <glyph glyph-name="glyph228" 
d="M-128 1934h132v-515h-132v515zM-412 1934h132v-515h-132v515z" />
    <glyph glyph-name="glyph316" horiz-adv-x="1287" 
d="M848 112q-13 -9 -32 -14t-41 -5q-40 0 -74.5 15.5t-60.5 42.5t-41 63t-15 78h-80v127q-11 -9 -33.5 -16t-44.5 -7q-45 0 -84 17t-67.5 46t-44.5 69.5t-16 86.5q0 17 3 30q-39 14 -71 39t-55.5 59t-35.5 73t-12 82q0 95 44.5 177t121 142.5t178.5 95t217 34.5t216.5 -35
t178.5 -95.5t121.5 -142.5t44.5 -176q0 -66 -27 -133.5t-79 -129.5l-106 65q80 96 80 198q0 68 -34 128t-92.5 105t-137 71t-165.5 26q-88 0 -166 -26t-136.5 -70.5t-93 -105t-34.5 -128.5q0 -54 28.5 -91t60.5 -46q22 32 62.5 58t100.5 26q55 0 94.5 -23t61.5 -56
q22 31 53 48.5t62 17.5q37 0 69.5 -16t56 -44.5t38 -64.5t14.5 -77v-166q25 -13 40 -42q14 24 47.5 39t77.5 15q37 0 69.5 -15t56 -40t38 -58.5t14.5 -70.5v-318h-129v316q0 27 -16 46.5t-40 19.5q-23 0 -39.5 -19.5t-16.5 -46.5v-316h-129v138zM862 290q0 39 -23.5 66
t-56.5 27t-56 -27t-23 -66q0 -37 23 -64t56 -27t56.5 27t23.5 64zM517 619q0 44 -27 75t-64 31q-39 0 -66 -31t-27 -75q0 -45 26.5 -74.5t64.5 -29.5t65.5 29.5t27.5 74.5zM742 633q0 29 -15 48t-37 19t-37.5 -19t-15.5 -46v-212q11 18 40 37.5t65 23.5v149z" />
    <glyph glyph-name="glyph317" horiz-adv-x="1331" 
d="M325 -53l40 119q45 -26 109 -39.5t141 -13.5q80 0 153 14t133 40t106 62.5t71 82.5q-96 3 -147 58t-51 139q0 70 34.5 115t94.5 67q22 41 38.5 101.5t16.5 139.5q0 81 -33.5 153.5t-91 126.5t-134 85t-163.5 31q-94 0 -178.5 -27.5t-147.5 -76t-100 -113.5t-37 -139
q0 -50 17.5 -95.5t48.5 -76.5q21 25 55.5 39t77.5 14t78 -18t54 -49q18 31 53.5 49t78.5 18q38 0 71.5 -15.5t58.5 -42.5t40 -63t15 -77v-396h-129v396q0 33 -17 56.5t-39 23.5t-39 -23.5t-17 -56.5v-396h-129v171q-38 -26 -85 -26q-43 0 -80.5 18.5t-65 48.5t-44 70.5
t-16.5 87.5q0 44 13 79q-62 34 -96.5 104.5t-34.5 159.5q0 98 47 184.5t128 151t189.5 102t229.5 37.5q114 0 215 -41t176.5 -111t119.5 -163.5t44 -199.5q0 -67 -18 -131.5t-44 -112.5q66 -8 103.5 -58t37.5 -126q0 -106 -52.5 -199t-142 -162t-210 -109t-256.5 -40
q-143 0 -290 53zM471 529q0 49 -29.5 84t-71.5 35q-19 0 -37 -9t-31.5 -25.5t-21.5 -38.5t-8 -46q0 -50 29 -85t69 -35q42 0 71.5 35t29.5 85zM1164 409q0 33 -25.5 56.5t-61.5 23.5q-35 0 -60 -23.5t-25 -56.5q0 -32 25 -55.5t60 -23.5q36 0 61.5 23.5t25.5 55.5z" />
    <glyph glyph-name="glyph318" horiz-adv-x="1338" 
d="M325 -53l40 119q45 -26 109 -39.5t141 -13.5q80 0 153 14t133 40t106 62.5t71 82.5q-96 3 -147 58t-51 139q0 70 34.5 115t94.5 67q22 41 38.5 101.5t16.5 139.5q0 81 -33.5 153.5t-91 126.5t-134 85t-163.5 31q-94 0 -178.5 -27.5t-147.5 -76t-100 -113.5t-37 -139
q0 -50 17.5 -95.5t48.5 -76.5q21 25 55.5 39t77.5 14t78 -18t54 -49q18 31 53.5 49t78.5 18q38 0 71.5 -15.5t58.5 -42.5t40 -63t15 -77v-396h-129v396q0 33 -17 56.5t-39 23.5t-39 -23.5t-17 -56.5v-396h-129v171q-38 -26 -85 -26q-43 0 -80.5 18.5t-65 48.5t-44 70.5
t-16.5 87.5q0 44 13 79q-62 34 -96.5 104.5t-34.5 159.5q0 98 47 184.5t128 151t189.5 102t229.5 37.5q114 0 215 -41t176.5 -111t119.5 -163.5t44 -199.5q0 -67 -18 -131.5t-44 -112.5q66 -8 103.5 -58t37.5 -126q0 -114 -58 -213v-587h-951v119h822v322q-5 -2 -7 -4
q-193 -147 -467 -147q-143 0 -290 53zM471 529q0 49 -29.5 84t-71.5 35q-19 0 -37 -9t-31.5 -25.5t-21.5 -38.5t-8 -46q0 -50 29 -85t69 -35q42 0 71.5 35t29.5 85zM1164 409q0 33 -25.5 56.5t-61.5 23.5q-35 0 -60 -23.5t-25 -56.5q0 -32 25 -55.5t60 -23.5q36 0 61.5 23.5
t25.5 55.5z" />
    <glyph glyph-name="glyph319" horiz-adv-x="1333" 
d="M584 351q-19 -19 -50 -30t-70 -11q-51 0 -96.5 20t-79.5 54t-54 79t-20 97q0 19 4 38.5t12 36.5q-43 15 -78 42t-58.5 62t-37 76.5t-13.5 84.5q0 102 45 184.5t127 141t196 90t252 31.5q133 0 242.5 -31.5t187.5 -90t121.5 -141t43.5 -184.5q0 -69 -24.5 -127t-68.5 -97
l-106 53q66 81 66 171q0 71 -36 131t-98 103.5t-146.5 68t-181.5 24.5q-102 0 -191 -24.5t-155.5 -68t-104.5 -103.5t-38 -131q0 -31 8.5 -60t24 -50.5t35.5 -34.5t43 -13h8q32 33 76.5 51t94.5 18q58 0 108 -23.5t78 -66.5q29 43 70.5 66.5t88.5 23.5q46 0 87 -16.5
t71 -45.5t48 -67t18 -82v-376h-103q-32 -38 -32 -87q0 -40 33 -69t79 -29q47 0 79.5 28t32.5 68v155h129v-450h-129v97q-29 -30 -112 -30q-48 0 -90 18t-73.5 49t-49.5 73t-18 90q0 55 17.5 102t48.5 78l59 -32v315q0 36 -29 61t-66 25q-39 0 -67.5 -25t-28.5 -61v-376h-129
v127zM584 526v56q0 44 -34.5 74t-85.5 30q-24 0 -46 -10t-38 -29t-25 -43.5t-9 -51.5t9 -51.5t25 -43t38 -29t46 -10.5q51 0 85.5 31.5t34.5 76.5z" />
    <glyph glyph-name="glyph320" horiz-adv-x="1362" 
d="M584 224v127q-19 -19 -50 -30t-70 -11q-51 0 -96.5 20t-79.5 54t-54 79t-20 97q0 19 4 38.5t12 36.5q-43 15 -78 42t-58.5 62t-37 76.5t-13.5 84.5q0 102 45 184.5t127 141t196 90t252 31.5q133 0 242.5 -31.5t187.5 -90t121.5 -141t43.5 -184.5q0 -69 -24.5 -127
t-68.5 -97l-106 53q66 81 66 171q0 71 -36 131t-98 103.5t-146.5 68t-181.5 24.5q-102 0 -191 -24.5t-155.5 -68t-104.5 -103.5t-38 -131q0 -31 8.5 -60t24 -50.5t35.5 -34.5t43 -13h8q32 33 76.5 51t94.5 18q58 0 108 -23.5t78 -66.5q29 43 70.5 66.5t88.5 23.5
q46 0 87 -16.5t71 -45.5t48 -67t18 -82v-319q21 12 44 19t47 7q38 0 72.5 -14t59.5 -38t39 -55.5t14 -67.5v-230h-129v227q0 30 -17 51t-52 21q-31 0 -52.5 -21t-21.5 -51v-227h-129v227q0 30 -22 51t-53 21q-28 0 -48 -21t-20 -51v-227h-129v227q0 32 9 55.5t23 39.5h-84z
M713 270q18 16 47 26.5t63 10.5q44 0 81 -21v314q0 36 -29 61t-66 25q-39 0 -67.5 -25t-28.5 -61v-330zM584 582q0 44 -34.5 74t-85.5 30q-24 0 -46 -10t-38 -29t-25 -43.5t-9 -51.5t9 -51.5t25 -43t38 -29t46 -10.5q51 0 85.5 31.5t34.5 76.5v56z" />
    <glyph glyph-name="glyph321" horiz-adv-x="1370" 
d="M412 290q0 82 14 106q-47 -39 -81 -69t-58 -53.5t-38 -41.5t-22 -33q23 -7 38 -25.5t15 -41.5q0 -38 -31 -65t-75 -27t-75 31.5t-31 80.5q0 66 66 140t186 157q-53 14 -97 46.5t-75.5 77.5t-49 101t-17.5 118q0 115 50 215.5t134.5 176t197 119.5t240.5 44q59 0 117 -15
t110 -41.5t95 -62.5t74 -79v141h129v-1290h-129v184q-58 -98 -148.5 -154t-194.5 -56q-71 0 -133.5 25.5t-109.5 68.5t-74 100.5t-27 121.5zM1072 356l-294 295l-173 -139q-35 -28 -54.5 -81.5t-19.5 -127.5q0 -44 17.5 -82.5t47.5 -67t71 -44.5t89 -16q49 0 96.5 19.5
t89.5 54t75.5 83t54.5 106.5zM706 728l-358 366q-62 -45 -98 -125t-36 -177q0 -53 17.5 -100.5t48.5 -84t71.5 -57.5t87.5 -21zM1099 898q-23 66 -63.5 126t-94 105t-117.5 72t-136 27q-35 0 -72 -3t-71 -11.5t-64.5 -21.5t-53.5 -32l672 -684v422z" />
    <glyph glyph-name="glyph322" horiz-adv-x="1333" 
d="M310 686q-47 9 -85.5 35t-66.5 64t-44 85.5t-16 100.5q0 78 38.5 146.5t106 119t155.5 80.5t186 30q62 0 117.5 -13t101.5 -33t81.5 -46t58.5 -53v88h129v-894q28 0 53.5 -15t29.5 -26v94h129v-555h-129v318q0 32 -26.5 55t-71.5 23q-35 0 -54 -14t-20 -39l53 -25
l-53 -80q-68 40 -93 40q-24 0 -48 -6.5t-43.5 -19.5t-31 -33t-11.5 -47q0 -16 3 -26q15 14 42.5 26.5t62.5 12.5q38 0 71.5 -12t58.5 -33t40 -49.5t15 -63.5q0 -31 -13.5 -57.5t-37 -45.5t-55 -30t-66.5 -11q-49 0 -92 20t-75.5 53.5t-51 79t-18.5 96.5q0 100 64.5 164.5
t172.5 73.5q0 38 18 67t48 39v65q-66 -58 -143.5 -88t-146.5 -30q-67 0 -120.5 19.5t-91 55t-58.5 86t-21 112.5q-59 -29 -100 -67t-58 -74q14 -19 20 -37.5t6 -28.5q0 -37 -27.5 -58t-59.5 -21q-44 0 -71 27.5t-27 70.5q0 78 71.5 152t193.5 132zM956 -72q0 27 -24.5 46.5
t-62.5 19.5t-61.5 -19.5t-23.5 -46.5t23.5 -46.5t61.5 -19.5t62.5 19.5t24.5 46.5zM711 792q-39 -18 -77.5 -39.5t-85.5 -50.5q-44 -27 -62.5 -49.5t-18.5 -56.5q0 -36 14 -67.5t38.5 -55t59 -37t74.5 -13.5q50 0 92.5 11.5t78.5 31.5t66 47.5t53 56.5zM632 866l-299 290
q-48 -30 -81 -75.5t-33 -107.5q0 -51 15.5 -90t42 -67t62 -44.5t75.5 -22.5zM943 965q-8 45 -33.5 91.5t-70 84.5t-108 62.5t-147.5 24.5q-50 0 -91.5 -5t-64.5 -16l515 -494v252z" />
    <glyph glyph-name="glyph323" horiz-adv-x="1364" 
d="M390 515q0 16 1 28t5 22q-54 -30 -102.5 -66t-75.5 -62q22 -4 37 -25t15 -51q0 -31 -30.5 -53.5t-74.5 -22.5t-75 31.5t-31 75.5q0 45 60 104.5t165 121.5q-47 9 -85.5 35t-67 64t-44 85.5t-15.5 100.5q0 89 45.5 169.5t122.5 141.5t179 97t216 36q151 0 263 -50
t191 -128v144h129v-1497h-124v330q-75 -5 -133.5 -22.5t-98.5 -44.5q36 -21 56.5 -61.5t20.5 -91.5q0 -34 -15 -64.5t-40 -53.5t-58.5 -36t-72.5 -13q-36 0 -70 13t-60 35.5t-41.5 53.5t-15.5 67q0 44 19 83t52 68l-122 69l60 92l165 -90q73 42 164.5 75t184.5 45v125
q-62 -74 -151.5 -114.5t-191.5 -40.5q-73 0 -138 22t-113.5 59.5t-76.5 87t-28 106.5zM777 793l-176 -108q-44 -27 -62 -62t-18 -93q0 -39 17.5 -69.5t48.5 -52.5t71.5 -34t87.5 -12q50 0 99 14t91 39.5t76 62.5t55 83zM695 858l-347 278q-63 -36 -103.5 -96t-40.5 -137
q0 -43 18 -80t48.5 -65t71 -44t86.5 -16zM1089 1006q-40 45 -88 85t-104 70.5t-120 48.5t-133 18q-64 0 -115.5 -12t-78.5 -25l639 -512v327zM818 -72q0 32 -19 59t-48 39q-29 -20 -45 -45.5t-16 -51.5q0 -22 19 -37.5t44 -15.5q27 0 46 15t19 37z" />
    <glyph glyph-name="glyph324" horiz-adv-x="2136" 
d="M1866 595q-21 -25 -56 -39t-77 -14q-54 0 -102.5 18.5t-84 51t-57 75.5t-21.5 92v511h129v-511q0 -24 11 -46t29 -38t43.5 -25.5t52.5 -9.5t51.5 9.5t42.5 25.5t28.5 38t10.5 46v511h129v-1290h-129v595zM412 290q0 82 14 106q-47 -39 -81 -69t-58 -53.5t-38 -41.5
t-22 -33q23 -7 38 -25.5t15 -41.5q0 -38 -31 -65t-75 -27t-75 31.5t-31 80.5q0 66 66 140t186 157q-53 14 -97 46.5t-75.5 77.5t-49 101t-17.5 118q0 115 50 215.5t134.5 176t197 119.5t240.5 44q59 0 117 -15t110 -41.5t95 -62.5t74 -79v141h129v-1290h-129v184
q-58 -98 -148.5 -154t-194.5 -56q-71 0 -133.5 25.5t-109.5 68.5t-74 100.5t-27 121.5zM1072 356l-294 295l-173 -139q-35 -28 -54.5 -81.5t-19.5 -127.5q0 -44 17.5 -82.5t47.5 -67t71 -44.5t89 -16q49 0 96.5 19.5t89.5 54t75.5 83t54.5 106.5zM706 728l-358 366
q-62 -45 -98 -125t-36 -177q0 -53 17.5 -100.5t48.5 -84t71.5 -57.5t87.5 -21zM1099 898q-23 66 -63.5 126t-94 105t-117.5 72t-136 27q-35 0 -72 -3t-71 -11.5t-64.5 -21.5t-53.5 -32l672 -684v422z" />
    <glyph glyph-name="glyph325" horiz-adv-x="1300" 
d="M1033 -264h-129l-463 105l186 100q-27 0 -61.5 7t-65 22.5t-51.5 39.5t-21 56q0 41 25.5 77t69 63t101 42.5t122.5 15.5q95 0 158 -52v388q0 36 -29 61t-66 25q-39 0 -67.5 -25t-28.5 -61v-305h-129v56q-19 -19 -50 -30t-70 -11q-51 0 -96.5 20t-79.5 54t-54 79t-20 97
q0 19 4 38.5t12 36.5q-43 15 -78 42t-58.5 62t-37 76.5t-13.5 84.5q0 102 45 184.5t127 141t196 90t252 31.5q133 0 242.5 -31.5t187.5 -90t121.5 -141t43.5 -184.5q0 -69 -24.5 -127t-68.5 -97l-106 53q66 81 66 171q0 71 -36 131t-98 103.5t-146.5 68t-181.5 24.5
q-102 0 -191 -24.5t-155.5 -68t-104.5 -103.5t-38 -131q0 -31 8.5 -60t24 -50.5t35.5 -34.5t43 -13h8q32 33 76.5 51t94.5 18q58 0 108 -23.5t78 -66.5q29 43 70.5 66.5t88.5 23.5q46 0 87 -16.5t71 -45.5t48 -67t18 -82v-864zM904 66q-16 36 -59.5 58t-98.5 22
q-37 0 -70.5 -6.5t-59 -17t-40.5 -25t-15 -31.5q0 -16 19 -27.5t50.5 -20.5t74.5 -13.5t94 -4.5l12 -53l-118 -66l211 -40v225zM584 526v56q0 44 -34.5 74t-85.5 30q-24 0 -46 -10t-38 -29t-25 -43.5t-9 -51.5t9 -51.5t25 -43t38 -29t46 -10.5q51 0 85.5 31.5t34.5 76.5z
" />
    <glyph glyph-name="glyph326" horiz-adv-x="1349" 
d="M1176 1290v-884q25 -2 65.5 -8.5t87.5 -24.5l-30 -109q-54 20 -118 30t-134 10q-68 0 -130.5 -10.5t-109.5 -30.5t-75 -46.5t-28 -57.5q0 -17 15.5 -28.5t37.5 -11.5q48 40 119 40l26 -93q-49 0 -84 -27t-35 -65q0 -22 38.5 -37.5t94.5 -15.5q71 0 133.5 27t103.5 78v120
h129v-345h-129v80q-55 -38 -115 -59t-122 -21q-54 0 -102 13.5t-84 37t-57.5 55t-21.5 67.5q0 23 10.5 44.5t29.5 34.5q-50 0 -85 31t-35 75q0 59 32.5 105.5t93 78.5t149.5 49t201 17v476q-72 152 -203 240q-133 91 -285 90q-78 0 -147.5 -22t-122 -59.5t-83.5 -87.5
t-31 -108q0 -39 18.5 -68.5t47.5 -37.5q43 50 105.5 78t133.5 28q68 0 128 -24t104.5 -65t71 -96.5t26.5 -117.5q0 -61 -26.5 -114t-71 -93t-104.5 -62.5t-128 -22.5q-67 0 -127.5 22.5t-105 62.5t-71 93t-26.5 114q0 69 13 91q-56 33 -87.5 89.5t-31.5 122.5q0 85 41 159
t111.5 129.5t164 88t198.5 32.5q76 0 147 -16t134 -47t116 -75t91 -100v181h129zM677 635q0 36 -15.5 67t-42.5 54t-63 36.5t-76 13.5t-76 -13.5t-63.5 -36.5t-43.5 -54t-16 -67t15.5 -68t42.5 -55t63.5 -36.5t77.5 -13.5q40 0 76 13.5t63 36.5t42.5 55t15.5 68z" />
    <glyph glyph-name="glyph327" horiz-adv-x="1308" 
d="M284 832q42 50 104.5 78t133.5 28q69 0 129 -24t104.5 -65t71 -96.5t26.5 -117.5q0 -61 -26.5 -114t-71 -93t-104.5 -62.5t-129 -22.5q-67 0 -127.5 22.5t-105 62.5t-71 93t-26.5 114q0 33 4 53q3 19 5 31q-32 12 -61 35t-51.5 53t-36 68t-13.5 83q0 80 38.5 151
t105.5 124t155.5 83.5t189.5 30.5q166 0 305 -69q137 -67 204 -183v195h129v-1484h-129v133q-63 -74 -145.5 -116t-171.5 -42q-60 0 -112 16.5t-92 45t-63 67t-23 82.5q0 34 10 62.5t28 50t42 34t51 12.5l-237 79l40 105l502 -171l-53 -106l-133 40q-25 0 -47 -8.5
t-38 -22.5t-25 -33.5t-9 -41.5q0 -19 12.5 -36t34.5 -29.5t51 -20t61 -7.5q89 0 172 60t145 165v651q0 91 -40.5 171t-110 140t-162 94.5t-196.5 34.5q-74 0 -140.5 -20t-116 -54.5t-78.5 -82t-29 -100.5q0 -27 9 -49.5t25.5 -40t38.5 -27t47 -9.5zM720 635q0 36 -15.5 67
t-42.5 54t-63.5 36.5t-76.5 13.5t-76 -13.5t-63 -36.5t-43 -54t-16 -67t15.5 -68t42.5 -55t63 -36.5t77 -13.5q40 0 76.5 13.5t63.5 36.5t42.5 55t15.5 68z" />
    <glyph glyph-name="glyph328" horiz-adv-x="1303" 
d="M1161 1290v-1327h-129v212q-4 2 -8.5 2h-8.5q-27 0 -60.5 -10t-62.5 -25.5t-51 -34.5t-26 -37q18 -7 30 -32.5t12 -60.5q0 -36 -31 -61.5t-75 -25.5q-25 0 -47 10t-38 27.5t-25 40t-9 49.5q0 60 32.5 113t87 92.5t127 62t153.5 22.5v590q0 65 -37.5 123t-100.5 101.5
t-147 68.5t-178 25q-81 0 -153.5 -20t-126.5 -53.5t-85.5 -79t-31.5 -97.5q0 -58 34.5 -102.5t92.5 -60.5q33 33 88 50t126 17q69 0 128 -25t103.5 -68t70.5 -101t26 -123q0 -62 -26 -118t-70.5 -97.5t-105 -66t-128.5 -24.5q-69 0 -129.5 24.5t-105 66t-70 97.5t-25.5 118
q0 47 10 84t30 61q-40 11 -73.5 36.5t-57.5 60.5t-37 79t-13 91q0 80 42.5 149.5t115 121.5t168.5 82t203 30q77 0 147.5 -13t130 -38t107 -60.5t78.5 -80.5v135h129zM709 552q0 39 -15 73t-42.5 59t-63.5 39.5t-77 14.5q-40 0 -76 -14.5t-63.5 -39.5t-43 -59t-15.5 -73
t15.5 -72.5t43 -58.5t63.5 -40t76 -15q41 0 77 15t63.5 40t42.5 58.5t15 72.5z" />
    <glyph glyph-name="glyph329" horiz-adv-x="1415" 
d="M172 965q0 -58 34.5 -102.5t92.5 -60.5q33 33 88 50t126 17q69 0 128 -25t103.5 -68t70.5 -101t26 -123q0 -62 -26 -118t-70.5 -97.5t-105 -66t-128.5 -24.5q-69 0 -129.5 24.5t-105 66t-70 97.5t-25.5 118q0 47 10 84t30 61q-40 11 -73.5 36.5t-57.5 60.5t-37 79t-13 91
q0 82 38 152.5t104 121.5t154 80t190 29q78 0 149.5 -13.5t131.5 -38t106.5 -60t74.5 -79.5v134h129v-1028q13 10 37 18t57 8q36 0 68.5 -12.5t57 -35.5t38.5 -56.5t14 -75.5v-198h-129v198q0 31 -20.5 53.5t-51.5 22.5t-51 -22.5t-20 -53.5v-198h-129v198q0 31 -20.5 53.5
t-51.5 22.5q-32 0 -51.5 -22.5t-19.5 -53.5v-198h-129v198q0 42 15 74.5t40 56t60.5 36.5t75.5 13q24 0 45.5 -6t35.5 -18v627q0 67 -36.5 126t-100 103t-147.5 69t-178 25q-75 0 -140 -17.5t-112.5 -50.5t-74.5 -78.5t-27 -102.5zM709 552q0 39 -15 73t-42.5 59t-63.5 39.5
t-77 14.5q-40 0 -76 -14.5t-63.5 -39.5t-43 -59t-15.5 -73t15.5 -72.5t43 -58.5t63.5 -40t76 -15q41 0 77 15t63.5 40t42.5 58.5t15 72.5z" />
    <glyph glyph-name="glyph330" horiz-adv-x="1286" 
d="M1144 1290v-1289h-129v177q-27 0 -65 -5t-75 -16t-67 -28t-40 -41q29 -11 47 -36.5t18 -56.5q0 -39 -27 -66t-66 -27q-24 0 -46 10.5t-38 28.5t-25 42.5t-9 51.5q0 67 40 116t99 80.5t127.5 47t126.5 15.5v106q-24 -28 -62 -44.5t-84 -16.5q-77 0 -135.5 37t-74.5 95
q-8 -29 -28.5 -53.5t-50.5 -41.5t-68.5 -27t-80.5 -10q-54 0 -101 21.5t-82.5 57t-56.5 83t-21 101.5q0 93 39 147q-79 37 -125.5 105t-46.5 147q0 72 39 135.5t105.5 110t154 73.5t185.5 27q84 0 160 -13.5t140 -39.5t113.5 -62.5t80.5 -82.5v141h129zM521 1228
q-71 0 -136 -17.5t-114.5 -48.5t-78.5 -72t-29 -89q0 -52 29.5 -92.5t79.5 -53.5q36 43 95 75t113 49l41 -108q-106 -38 -162.5 -101t-56.5 -168q0 -32 10 -61t28.5 -50t42 -33.5t50.5 -12.5q34 0 62.5 15t50.5 40t34 58.5t12 71.5v121h133v-121q0 -38 11.5 -71.5t31 -58.5
t46 -40t55.5 -15q31 0 57.5 15t46 40t31 58.5t11.5 71.5v268q0 68 -39 128.5t-107 105t-157.5 70.5t-190.5 26z" />
    <glyph glyph-name="glyph331" horiz-adv-x="1481" 
d="M734 172q-13 -20 -34 -30t-45 -10q-47 0 -82.5 26t-48.5 66q-17 -40 -49.5 -66t-82.5 -26q-49 0 -86.5 22.5t-62.5 60t-38 84.5t-13 97q0 58 14.5 101.5t26.5 57.5q-90 37 -137.5 115.5t-47.5 188.5q0 102 45.5 191t123 155t181 104t217.5 38q137 0 259.5 -35t227.5 -102
q23 27 59.5 42.5t80.5 15.5q43 0 79.5 -17.5t65 -46.5t44.5 -68.5t16 -84.5q0 -44 -16 -83.5t-44.5 -70t-65 -48t-79.5 -17.5q-41 0 -78.5 17t-65 46.5t-44 69t-16.5 84.5l6 35q-71 63 -181.5 103.5t-247.5 40.5q-87 0 -166.5 -29.5t-139.5 -80.5t-95 -118t-35 -141
q0 -35 9 -70.5t26.5 -65t44.5 -50t63 -25.5q12 3 31 7.5t40 4.5q46 0 79.5 -22.5t51.5 -59.5q19 39 54.5 60.5t84.5 21.5q39 0 75.5 -16.5t62.5 -48.5q27 33 64.5 49t80.5 16q42 0 81 -15t68 -42.5t45.5 -64t16.5 -77.5v-461h-129v461q0 33 -24 57t-58 24q-35 0 -59 -23.5
t-24 -56.5v-462h-129v172zM734 396q0 31 -6.5 57.5t-17 46t-25 31t-30.5 11.5t-31 -11.5t-25.5 -31t-17 -46t-6.5 -57.5q0 -30 6.5 -56.5t17 -45.5t25.5 -30.5t31 -11.5t30.5 11.5t25 30.5t17 45.5t6.5 56.5zM1329 1049q0 41 -25.5 70.5t-61.5 29.5q-35 0 -60 -29.5
t-25 -70.5q0 -40 25 -69t60 -29q36 0 61.5 29t25.5 69zM471 396q0 31 -6.5 57.5t-17 46t-25 31t-30.5 11.5q-17 0 -31.5 -11.5t-25 -31t-17 -46t-6.5 -57.5q0 -30 6.5 -56.5t17 -45.5t25 -30.5t31.5 -11.5q16 0 30.5 11.5t25 30.5t17 45.5t6.5 56.5z" />
    <glyph glyph-name="glyph332" horiz-adv-x="1407" 
d="M517 -277q45 -26 100.5 -39.5t107.5 -13.5q62 0 115.5 5t96 13.5t72 18.5t45.5 20q-30 5 -58.5 21.5t-50 42.5t-35 60.5t-13.5 76.5q0 46 18 88t48 73.5t71 50.5t87 19t87 -19t71 -50.5t48 -73.5t18 -88q0 -85 -44.5 -155t-126 -119t-196 -76t-253.5 -27q-90 0 -159 18.5
t-108 42.5zM1227 -74q0 47 -31 80.5t-75 33.5t-75 -33.5t-31 -80.5q0 -46 31 -78t75 -32t75 32t31 78zM541 66q-7 -12 -25 -19t-41 -7q-27 0 -51.5 9t-43 25t-28.5 38t-10 47q-30 0 -56.5 12.5t-45.5 34t-31 50.5t-12 61q0 33 13.5 62t37 52t54 40t62.5 24
q-30 12 -57.5 33.5t-49 50.5t-34.5 63.5t-13 70.5q-38 12 -70 36t-54.5 56.5t-34.5 74t-12 85.5q0 80 42.5 149.5t114.5 121t167.5 81.5t202.5 30q96 0 188 -18t173.5 -55.5t148.5 -94.5t112 -135q37 0 71 -15.5t58.5 -42t38.5 -61.5t14 -74q0 -37 -15.5 -71t-42 -60
t-62 -41.5t-76.5 -15.5q-40 0 -75.5 15t-62 40.5t-42 60t-15.5 72.5q0 58 24 102t65 64q-41 55 -98 95t-122.5 66t-137 38t-144.5 12q-81 0 -154 -21t-127.5 -57.5t-87.5 -84t-33 -100.5q0 -52 20.5 -90t51.5 -43q17 45 61.5 84t110.5 62l53 -93q-60 -22 -96 -65t-36 -94
q0 -37 18.5 -70.5t51.5 -59t76.5 -40t90.5 -14.5q43 0 81.5 9t67.5 25t46 38t17 46q0 33 -31 62t-77 37l-118 -88l-64 82l370 280l64 -81l-157 -120q24 -9 48 -23t42 -35t30 -47.5t12 -58.5q0 -26 -9.5 -49.5t-24.5 -44.5t-34.5 -36.5t-40.5 -25.5q60 -13 109.5 -40.5
t85.5 -67t58 -88.5t27 -104l-104 -28q-4 51 -23 96t-68 85t-115.5 55.5t-138.5 15.5q-62 0 -116.5 -8.5t-96.5 -24t-66 -37.5t-24 -49q0 -22 15.5 -37.5t37.5 -15.5q14 30 42.5 48t63.5 18q37 0 68.5 -17.5t49.5 -48.5q17 25 48.5 39t70.5 14q30 0 56.5 -11.5t46.5 -31.5
t31.5 -46.5t11.5 -55.5v-172h-120v172q0 16 -11.5 28t-27.5 12q-17 0 -28.5 -12t-11.5 -28v-172h-118v66zM528 177q0 19 -14.5 33t-33.5 14q-18 0 -31.5 -14t-13.5 -33q0 -18 13.5 -31.5t31.5 -13.5q19 0 33.5 13.5t14.5 31.5zM1267 851q0 37 -27 62t-66 25q-38 0 -65 -25
t-27 -62q0 -34 27 -59.5t65 -25.5q39 0 66 25.5t27 59.5z" />
    <glyph glyph-name="glyph333" horiz-adv-x="1362" 
d="M1036 1040q-54 87 -174 137.5t-282 50.5q-87 0 -164.5 -20.5t-135 -57.5t-90.5 -88t-33 -111q0 -44 19.5 -75t46.5 -31q25 54 70.5 91t103.5 51l47 -94q-66 -18 -104 -60t-38 -108q0 -43 18 -79t50 -61.5t76 -40.5t95 -15q46 0 86.5 11.5t71 32t48.5 48.5t18 59
q0 41 -23 70t-57 29l-172 -119l-60 86l396 277l62 -85l-129 -89q42 -20 72 -67t30 -102q0 -56 -28.5 -103t-77.5 -69q70 0 133 -53v73h129v-528h-129v53q-31 -38 -101 -58.5t-164 -20.5q-47 0 -91 11.5t-76.5 31t-51.5 46t-19 56.5q-33 -12 -53.5 -26t-25.5 -27
q10 0 18 -15.5t8 -37.5q0 -27 -23.5 -46.5t-55.5 -19.5q-39 0 -66 31t-27 75q0 54 55 101t144 70q-36 13 -58 47.5t-22 69.5q0 42 21 72.5t52 48.5q-43 11 -77.5 36.5t-58.5 60t-36 77.5t-12 89q-34 9 -61.5 30.5t-48 51t-31.5 67t-11 77.5q0 82 43 154.5t117 126t173 84.5
t208 31q84 0 167.5 -17t158 -50.5t137.5 -85.5t105 -125q39 0 72 -15.5t58 -41.5t39 -61t14 -74q0 -37 -15.5 -71.5t-42 -60t-62 -41t-76.5 -15.5q-40 0 -75.5 15t-62 40.5t-42 59.5t-15.5 73q0 58 27.5 100.5t68.5 62.5zM805 132l-133 92q-58 -10 -94.5 -32t-36.5 -46
q0 -22 34.5 -37.5t83.5 -15.5q79 0 146 39zM593 304l-105 105q-24 -4 -38.5 -24.5t-14.5 -41.5q0 -32 23 -49t55 -17q17 0 37 7.5t43 19.5zM911 317q-12 25 -39 45t-66.5 33.5t-90.5 20.5t-109 7l305 -251v145zM1228 877q0 36 -27 61.5t-66 25.5q-37 0 -64 -25.5t-27 -61.5
q0 -35 27 -60t64 -25q39 0 66 25t27 60z" />
    <glyph glyph-name="glyph334" horiz-adv-x="1522" 
d="M315 252q0 -82 21 -120.5t72 -38.5q45 0 69.5 31t24.5 75v237q0 37 -28.5 65t-65.5 28q-51 0 -72 -33.5t-21 -99.5v-144zM818 396q0 66 -21.5 99.5t-71.5 33.5q-37 0 -65.5 -28t-28.5 -65v-237q0 -44 24.5 -75t69.5 -31q50 0 71.5 38.5t21.5 120.5v144zM1183 0h-129v995
q-40 -84 -111.5 -134.5t-153.5 -50.5q-54 0 -101.5 20t-83.5 53.5t-57 80t-21 98.5q0 23 3.5 48t9 47.5t14 40.5t17.5 30q-80 0 -150 -29t-123 -79.5t-84 -117.5t-31 -144q0 -87 35 -151.5t96 -89.5q43 18 92 18q61 0 103.5 -26t57.5 -67q16 41 58.5 67t103.5 26
q221 0 221 -318q0 -343 -224 -343q-59 0 -101 25.5t-58 66.5q-15 -41 -57 -66.5t-101 -25.5q-225 0 -225 343q0 136 40 212q-39 18 -71 51t-54.5 75.5t-35 94t-12.5 108.5q0 209 173 358q87 75 190.5 102t227.5 27q108 0 148 -18q-61 -43 -96 -113.5t-35 -151.5
q0 -27 10.5 -51.5t28.5 -43t41.5 -28.5t50.5 -10q44 0 86 27.5t77.5 76t62 114.5t39.5 143h129v-34q35 25 89 25q45 0 84.5 -16t69.5 -44.5t47.5 -65.5t17.5 -79q0 -41 -17.5 -78.5t-47 -65.5t-69.5 -44t-85 -16q-30 0 -53 5t-36 14v-891zM1360 1076q0 36 -26 61t-62 25
q-35 0 -59.5 -25t-24.5 -61q0 -35 24.5 -60t59.5 -25q36 0 62 25t26 60z" />
    <glyph glyph-name="glyph335" horiz-adv-x="1522" 
d="M566 66q-15 -41 -57 -66.5t-101 -25.5q-225 0 -225 343q0 47 5 87t16 73q-72 49 -112 135.5t-40 193.5q0 112 45 211t123 172t181 115.5t219 42.5q144 0 258 -50.5t177 -140.5v134h129v-34q35 25 88 25q45 0 84.5 -16t69.5 -44.5t47.5 -65.5t17.5 -79q0 -41 -17.5 -78.5
t-47 -65.5t-69.5 -44t-85 -16q-30 0 -52.5 5t-35.5 14v-891h-129v862q0 73 -35.5 139.5t-95.5 117t-138.5 80t-165.5 29.5t-166.5 -34t-139.5 -92t-95.5 -134.5t-35.5 -161.5q0 -72 22 -129t63 -90q52 48 137 48q61 0 103.5 -26t57.5 -67q16 41 58.5 67t103.5 26
q221 0 221 -318q0 -343 -224 -343q-59 0 -101 25.5t-58 66.5zM315 252q0 -82 21 -120.5t72 -38.5q45 0 69.5 31t24.5 75v237q0 37 -28.5 65t-65.5 28q-51 0 -72 -33.5t-21 -99.5v-144zM818 396q0 66 -21.5 99.5t-71.5 33.5q-37 0 -65.5 -28t-28.5 -65v-237q0 -44 24.5 -75
t69.5 -31q50 0 71.5 38.5t21.5 120.5v144zM1360 1076q0 36 -26 61t-62 25q-35 0 -59.5 -25t-24.5 -61q0 -35 24.5 -60t59.5 -25q36 0 62 25t26 60z" />
    <glyph glyph-name="glyph336" horiz-adv-x="1531" 
d="M628 132q-24 -38 -68.5 -58.5t-102.5 -20.5q-55 0 -103 22t-83.5 60t-56.5 88t-21 107q0 118 39 185q-42 19 -75.5 51.5t-58 74t-37.5 90t-13 101.5q0 106 46.5 199.5t125.5 163.5t184.5 111t223.5 41q145 0 259.5 -49t176.5 -136v128h129v-36q27 27 88 27q45 0 85 -16
t69.5 -44t47 -64.5t17.5 -78.5t-17.5 -80t-47 -66.5t-69.5 -45.5t-85 -17q-50 0 -88 22v-891h-129v66q-44 -44 -91.5 -68t-92.5 -24t-86.5 11.5t-75.5 32.5t-57.5 50t-32.5 64zM590 304v172h131v-224q0 -33 13 -62t34 -50t50.5 -34t61.5 -13q35 0 66.5 18.5t56 51t40.5 75.5
t21 92v555q0 71 -34.5 133.5t-94 109t-139 73.5t-168.5 27q-91 0 -172.5 -31t-142.5 -85t-97.5 -126.5t-36.5 -153.5q0 -40 8.5 -75.5t22.5 -62.5t33.5 -43t41.5 -16q25 42 68.5 82t103.5 75l80 -106q-98 -58 -155 -152t-57 -204q0 -32 10.5 -61t28.5 -51t42 -34t51 -12
t51.5 10t42.5 28t28.5 42.5t10.5 51.5zM1369 1076q0 36 -26 61t-62 25q-35 0 -59.5 -25t-24.5 -61q0 -35 24.5 -60t59.5 -25q36 0 62 25t26 60z" />
    <glyph glyph-name="glyph337" horiz-adv-x="1267" 
d="M257 317q0 106 38 212q-55 14 -101.5 46.5t-79.5 76t-51 97t-18 110.5q0 102 47 191t127 155t186.5 104t225.5 38q120 0 227 -38t187.5 -104t127.5 -155t47 -191q0 -77 -20 -141.5t-58 -109.5l-106 65q53 92 53 186q0 76 -36 143t-99 117.5t-146 79.5t-177 29
q-93 0 -175.5 -29t-144.5 -79.5t-98 -117.5t-36 -143q0 -45 15.5 -85.5t42 -71.5t62.5 -51t78 -24q40 33 106 33q50 0 91.5 -25t60.5 -67q20 42 62 67t92 25t90.5 -24.5t70 -69t45.5 -108t16 -141.5q0 -76 -15.5 -139t-44.5 -108t-70.5 -70.5t-94.5 -25.5q-46 0 -85 21.5
t-59 57.5q-13 -35 -57 -57t-102 -22q-51 0 -93 24.5t-71 70t-44.5 108.5t-15.5 140zM573 317q0 225 -92 225q-44 0 -68.5 -58t-24.5 -167q0 -224 93 -224q92 0 92 224zM877 317q0 109 -24.5 167t-68.5 58q-47 0 -69 -53.5t-22 -171.5q0 -225 81 -225q49 0 76 53.5t27 171.5z
" />
    <glyph glyph-name="glyph338" horiz-adv-x="1231" 
d="M178 -53q0 47 25 87t68 59l-93 53q8 9 18 23q9 13 18 25t17.5 21t12.5 9l133 -65q85 -8 149.5 -35t100.5 -71q50 50 109 78t117 28q49 0 92 -17t75.5 -46t51 -67t18.5 -82q0 -37 -18 -70.5t-48.5 -59t-71 -40t-86.5 -14.5q-60 0 -118.5 30t-106.5 88q-58 -58 -123 -88
t-128 -30q-43 0 -81.5 14t-67.5 39t-46 58.5t-17 72.5zM561 -26q-31 31 -72 48.5t-87 17.5q-43 0 -74 -27t-31 -66q0 -32 27 -55.5t66 -23.5q59 0 106.5 29t64.5 77zM971 -53q0 39 -34.5 66t-83.5 27q-43 0 -81.5 -17.5t-64.5 -48.5q28 -49 70.5 -77.5t88.5 -28.5
q43 0 74 23.5t31 55.5zM258 423q0 19 5 43.5t16 53.5q-52 19 -95 53.5t-73.5 79t-47.5 97t-17 109.5q0 102 46 191t123.5 155t180.5 104t218 38q116 0 220 -39.5t181.5 -108t122.5 -160t45 -194.5q0 -70 -20.5 -130.5t-59.5 -106.5l-106 65q53 92 53 172t-35 149.5t-94 121
t-138.5 82t-168.5 30.5t-168.5 -29t-138.5 -79.5t-94 -117.5t-35 -143q0 -40 12.5 -77.5t34 -68.5t52 -54.5t67.5 -38.5q33 40 111 40q49 0 91 -20.5t68 -57.5q26 37 68 57.5t91 20.5q108 0 166 -61.5t58 -175.5q0 -113 -58 -176t-166 -63q-44 0 -86 24.5t-73 68.5
q-15 -41 -54.5 -67t-89.5 -26q-212 0 -212 239zM561 423q0 119 -91 119q-44 0 -68.5 -30.5t-24.5 -88.5t24.5 -88.5t68.5 -30.5q91 0 91 119zM866 423q0 58 -24.5 88.5t-68.5 30.5q-93 0 -93 -119t93 -119q44 0 68.5 30.5t24.5 88.5z" />
    <glyph glyph-name="glyph339" horiz-adv-x="2384" 
d="M1230 489q0 97 30 176t88 127q-55 39 -86.5 119.5t-31.5 184.5q0 82 29 150.5t83 113.5l99 -65q-38 -46 -59 -97t-21 -102q0 -83 30 -151.5t84 -117t131 -75t171 -26.5q82 0 155.5 25.5t128.5 68.5t87 100.5t32 123.5q0 37 -10.5 70t-29.5 58t-44 40t-54 15
q-21 0 -40.5 -11t-34.5 -29t-23.5 -41.5t-8.5 -49.5v-171h-131v171q0 26 -8.5 49.5t-23.5 41.5t-35 29t-43 11t-42.5 -10t-34 -26t-23 -37t-8.5 -45q0 -29 17.5 -60.5t48.5 -57.5l-105 -79q-45 45 -69 96t-24 101q0 55 17.5 98.5t48.5 74.5t75.5 48t98.5 17q56 0 103 -26.5
t73 -71.5q20 45 67 71.5t105 26.5q55 0 102.5 -24t83.5 -66t57 -96.5t21 -116.5q0 -97 -42 -181.5t-117 -136.5q35 -13 64.5 -41t50 -68t32.5 -90t12 -104q0 -93 -43 -174t-115.5 -142.5t-170 -97t-207.5 -35.5q-111 0 -209 40.5t-171.5 110.5t-116.5 164t-43 200zM2179 423
q0 43 -11 81.5t-29.5 67.5t-43.5 46t-54 17q-44 0 -75 -33t-31 -80v-179h-131v179q0 24 -8.5 44.5t-23.5 35.5t-35 24t-43 9q-45 0 -76.5 -35t-31.5 -85q0 -36 17.5 -71t48.5 -61l-106 -79q-43 30 -67.5 85.5t-24.5 125.5q0 49 15.5 89t44.5 63l-73 40q-37 -32 -58.5 -88.5
t-21.5 -129.5q0 -81 33 -153.5t88.5 -126.5t130.5 -85t157 -31q83 0 157 25.5t130 70t89 105.5t33 129zM308 450q-55 14 -103 48.5t-82 85.5t-53.5 115.5t-19.5 137.5q0 106 44.5 199t121.5 162t181 109t222 40q116 0 220 -39.5t181.5 -106.5t122.5 -157.5t45 -193.5
q0 -89 -27 -167.5t-79 -140.5l-105 66q38 55 58 117t20 125q0 79 -34.5 148t-94 120t-139 80.5t-168.5 29.5q-93 0 -173.5 -30.5t-140.5 -83t-95 -124.5t-35 -153q0 -53 16.5 -100t44 -83.5t65 -59.5t80.5 -26q50 50 111 77.5t125 27.5q68 0 128 -28t105 -76.5t71 -113.5
t26 -138q0 -69 -26 -131.5t-71 -109t-105 -74.5t-128 -28q-69 0 -129 28t-105 74.5t-71 109t-26 131.5q0 48 6 79.5t16 53.5zM815 319q0 45 -15.5 88t-42.5 76t-63 53t-77 20q-40 0 -76.5 -20t-63.5 -53t-42.5 -75.5t-15.5 -88.5t15.5 -86.5t42.5 -71.5t63.5 -49t76.5 -18
q41 0 77 19t63 49.5t42.5 71.5t15.5 85z" />
    <glyph glyph-name="glyph340" horiz-adv-x="1271" 
d="M279 244q0 60 21 110.5t59 81.5q-27 8 -49 28t-37.5 49.5t-24.5 67t-9 79.5q-40 0 -76.5 21.5t-63.5 57t-42.5 84t-15.5 102.5q0 88 48 164.5t129 134t189 90.5t229 33t229 -33.5t189 -91t128 -134.5t47 -163q0 -63 -20 -121t-58 -104l-106 79q53 63 53 146q0 63 -37 118
t-100 96t-147 65t-178 24t-178 -24t-147 -65t-100.5 -96t-37.5 -118q0 -32 7 -61t20 -51t29.5 -34.5t36.5 -12.5q20 58 68.5 102.5t115.5 69.5l66 -93q-71 -26 -114 -80t-43 -117q0 -56 30 -94.5t74 -38.5q34 0 57 31t23 74q0 47 23.5 87.5t63.5 71.5t92 48.5t111 17.5h133
v-356h102v-489h-129v356h-106q-38 0 -65.5 -23t-27.5 -56q0 -10 6.5 -30t14.5 -42q7 -23 13 -43t6 -30q0 -74 -60.5 -115.5t-163.5 -41.5q-57 0 -107 21.5t-88.5 58.5t-60 85t-21.5 104zM650 144q0 11 -4 30q-5 19 -9 40q-5 21 -9 40q-5 19 -5 30q0 40 17.5 74.5t47 61
t69 41.5t81.5 15v250q-36 0 -67.5 -10t-55.5 -27.5t-38 -42t-14 -51.5q0 -39 -15 -72.5t-40.5 -58.5t-60.5 -40t-75 -15q-36 -30 -55.5 -72.5t-19.5 -91.5q0 -31 12.5 -58.5t34.5 -47.5t51 -32.5t62 -12.5q39 0 66 14.5t27 35.5z" />
    <glyph glyph-name="glyph341" horiz-adv-x="1316" 
d="M862 264q0 33 -24.5 56t-57.5 23t-57 -27t-24 -66q0 -9 7 -23q6 -14 13 -29q7 -16 14 -30q6 -14 6 -22q0 -35 -16.5 -66t-45 -55t-66.5 -37.5t-82 -13.5q-54 0 -102.5 20t-84.5 54.5t-57 80t-21 95.5q0 66 24 121t68 91q-54 26 -86.5 86.5t-32.5 137.5q-42 8 -78 31.5
t-62.5 57t-41.5 77t-15 91.5q0 89 48.5 167t131.5 137t193.5 92.5t234.5 33.5q123 0 233.5 -33.5t193.5 -92.5t131.5 -137t48.5 -167q0 -73 -20.5 -132.5t-59.5 -98.5l-106 67q26 26 39.5 68t13.5 96q0 65 -38 121.5t-103 98.5t-151.5 66.5t-181.5 24.5q-97 0 -183.5 -24.5
t-151.5 -66.5t-103 -98.5t-38 -121.5q0 -54 28 -92t71 -46q26 56 75.5 95t115.5 57l53 -99q-70 -19 -114.5 -67t-44.5 -106q0 -29 9 -55.5t24.5 -46t36 -31t44.5 -11.5q29 0 50.5 19t21.5 48v40q0 41 18 76.5t48.5 62.5t71 42.5t86.5 15.5q45 0 86 -15.5t72 -42.5t49 -63
t18 -78v-620q0 -27 19 -46.5t47 -19.5q27 0 46 19.5t19 46.5v172h129v-476h-129v139q-5 -9 -24.5 -14t-47.5 -5q-40 0 -74 14t-59.5 39t-40 58.5t-14.5 72.5v264zM595 146q0 8 -5 22q-6 14 -12 30q-7 15 -12 29t-5 23t5 26q4 17 9 35q4 18 9 35q4 16 4 24q0 16 -13.5 27.5
t-32.5 11.5q-31 0 -57.5 -15t-46 -40t-31 -58.5t-11.5 -71.5q0 -27 10.5 -50.5t28.5 -41.5t42.5 -28.5t51.5 -10.5t46.5 15.5t19.5 37.5zM862 439v181q0 34 -28.5 57t-67.5 23q-38 0 -65.5 -23t-27.5 -57v-65q0 -20 -8 -37t-24 -28q12 -2 26 -12.5t27 -27.5q15 5 37 8.5
t48 3.5q23 0 44.5 -6t38.5 -17z" />
    <glyph glyph-name="glyph342" horiz-adv-x="1281" 
d="M404 172q-29 2 -52.5 17t-41 37.5t-28 53t-10.5 63.5q0 58 24.5 106.5t68.5 79.5q-35 19 -64 62.5t-29 105.5q0 10 0.5 24t2.5 18q-47 0 -90 15.5t-76.5 44.5t-53.5 71t-20 95q0 80 47.5 149.5t129 121t189 81.5t227.5 30q121 0 229 -33t189 -90.5t129 -134t48 -164.5
q0 -32 -9.5 -68.5t-29.5 -69.5l-120 45q9 14 18 35.5t9 57.5q0 63 -37 118t-100.5 96t-147.5 65t-178 24t-178.5 -24t-147 -62.5t-99.5 -89.5t-37 -105q0 -38 36.5 -65t90.5 -27q14 45 41.5 82t69.5 67l80 -66q-47 -41 -70 -97.5t-23 -145.5q0 -24 9 -47.5t25 -40.5t38 -28
t47 -11q38 0 65 25t27 64q0 16 -14 29t-31 28q-18 15 -32.5 34.5t-14.5 48.5q0 38 21.5 70.5t58 57t84.5 39t100 14.5h212v-330h-132v211h-67q-72 0 -106.5 -17.5t-34.5 -45.5q0 -19 11 -33.5t32 -28.5q26 -18 35.5 -35.5t9.5 -31.5q0 -19 -14 -40t-39 -32q112 0 225 -53
q10 -35 32 -64t60 -29q28 0 47 23t19 83v105h133v-78q0 -57 -14 -103.5t-40 -79.5t-62.5 -51t-82.5 -18q-55 0 -102 28.5t-69 77.5q-22 31 -70.5 48.5t-114.5 17.5q-51 0 -97 -12.5t-80 -33.5t-54 -50t-20 -63q0 -27 15.5 -46.5t37.5 -19.5q31 38 82.5 58.5t126.5 20.5
q42 0 84 -11.5t75.5 -35t55.5 -58t25 -79.5l224 -106l-53 -92l-197 92q-36 -44 -95.5 -68t-129.5 -24q-47 0 -89 12.5t-74.5 37t-52.5 62t-22 86.5zM783 166q0 39 -38.5 66t-93.5 27q-54 0 -92.5 -27t-38.5 -66q0 -38 35 -65t84 -27q29 0 55.5 7t46 20t31 29.5t11.5 35.5z
" />
    <glyph glyph-name="glyph343" horiz-adv-x="1260" 
d="M120 383q0 87 27 164t79 139q-70 48 -108 132.5t-38 185.5q0 117 38 214.5t108 155.5l93 -66q-58 -58 -88.5 -136.5t-30.5 -167.5q0 -71 35 -133.5t95 -109t138.5 -74t167.5 -27.5q84 0 158 29.5t129.5 79.5t88.5 118t33 144q0 40 -11.5 76t-31 63t-46 42.5t-57.5 15.5
q-22 0 -41.5 -9t-33.5 -25t-22.5 -38t-8.5 -47v-264h-131v277q0 44 -27 75t-66 31q-25 0 -46 -13.5t-37 -36.5t-26 -55t-10 -66q0 -37 19.5 -71t50.5 -60l-81 -82q-62 44 -91 103.5t-29 121.5q0 57 20 107.5t54 88.5t79 60t97 22q54 0 96.5 -25.5t62.5 -66.5q29 43 78 67.5
t107 24.5q61 0 109.5 -22.5t82.5 -64.5t52.5 -100t18.5 -129q0 -48 -12 -99.5t-36 -100.5t-60 -93t-84 -78q22 -1 44 -11t40.5 -29t30.5 -44.5t12 -60.5v-515h-129v502q0 33 -16.5 56.5t-39.5 23.5t-40 -23.5t-17 -56.5v-502h-129v139q-23 -19 -48.5 -26t-41.5 -7
q-50 0 -83 17.5t-51 48.5q-37 -33 -76.5 -49.5t-84.5 -16.5q-49 0 -92.5 21t-75 59t-49.5 88.5t-18 108.5zM450 330v230q-37 17 -58.5 25t-32.5 10q-24 0 -44 -17t-35.5 -46t-23.5 -67.5t-8 -81.5q0 -32 8 -61t23.5 -51t35.5 -34.5t44 -12.5q37 0 64 31t27 75zM740 317v251
q-46 -13 -160 -13v-251q0 -33 24 -56.5t58 -23.5q32 0 55 27.5t23 65.5z" />
    <glyph glyph-name="glyph344" horiz-adv-x="1240" 
d="M213 457q0 100 53 169q-51 15 -92 45.5t-70.5 70.5t-46 88t-16.5 100q0 89 46 165t124 132.5t183 88t225 31.5t226 -32.5t184 -90t123.5 -134.5t45.5 -166q0 -66 -20.5 -123.5t-59.5 -98.5l-114 55q31 36 47 79.5t16 87.5q0 130 -132 223q-66 46 -144 63.5t-171 17.5
q-92 0 -171.5 -17.5t-145.5 -62.5q-130 -91 -130 -218q0 -40 13 -76.5t36 -64.5t54.5 -44t67.5 -16q28 18 69 31.5t103 13.5q41 0 73.5 -15.5t46.5 -42.5q26 28 67 43t90 15q38 0 71 -13t58 -35t40 -51t15 -62v-856h-129v84q-30 -29 -68 -44.5t-78 -15.5q-53 0 -99 17.5
t-80 48t-53.5 73.5t-19.5 93q0 35 14.5 70.5t38.5 62.5l93 -45q-13 -21 -20 -44t-7 -47q0 -23 10.5 -43.5t28.5 -36t42.5 -24.5t51.5 -9q47 0 88 31.5t58 81.5v603q0 19 -16.5 33t-38.5 14q-27 0 -50.5 -10.5t-42 -29t-28.5 -43.5t-10 -53q0 -21 16.5 -41t36.5 -42
q19 -22 36 -48.5t17 -59.5q0 -36 -19 -67t-52 -54.5t-75.5 -37t-91.5 -13.5q-66 0 -123 23.5t-100.5 63.5t-68.5 94t-25 115zM636 333q0 22 -17 42.5t-36 42.5t-36 47.5t-17 58.5q0 31 10 60t29 53q0 9 -15.5 16t-37.5 7q-77 0 -124.5 -55t-47.5 -148q0 -40 15 -75.5t40 -62
t58.5 -42t72.5 -15.5q44 0 75 20.5t31 50.5z" />
    <glyph glyph-name="glyph345" horiz-adv-x="1189" 
d="M939 170q-36 -44 -85 -80t-106.5 -61.5t-122.5 -40t-135 -14.5q-89 0 -166.5 18t-134 51t-89.5 79.5t-33 101.5q0 56 29.5 100.5t80 76t118 51t142.5 24.5q44 4 83 15.5t67 32t45 48.5t17 63q0 29 -13.5 55.5t-37.5 46t-55 31t-66 11.5t-65.5 -9t-54.5 -25t-37.5 -38
t-13.5 -47q0 -29 13.5 -53.5t37.5 -38.5l-98 -73q-40 24 -63 67.5t-23 97.5q0 64 33 115t87 70q-52 24 -93 62.5t-71 86t-46 104.5t-16 117v80h129v-77q0 -167 108 -250t318 -83q64 0 122 17.5t101.5 48.5t68.5 71.5t25 86.5q0 49 -27 84t-66 35q-37 0 -65 -35t-28 -84v-105
h-130v118q0 44 -24 75t-56 31q-33 0 -56.5 -27t-23.5 -65q0 -23 14 -44t39 -35l-79 -73q-45 17 -72 57.5t-27 94.5q0 44 15 82t40 66.5t58.5 45.5t72.5 17q59 0 103.5 -25.5t60.5 -66.5q15 41 60 66.5t105 25.5q45 0 84.5 -19t69 -51.5t47 -75.5t17.5 -92q0 -58 -27 -111.5
t-75 -97t-114.5 -75.5t-143.5 -46q32 -18 50.5 -56.5t18.5 -87.5q0 -55 -23.5 -100t-63 -78t-90.5 -53.5t-105 -28.5q-62 -7 -116 -17.5t-95 -28t-64 -42.5t-23 -63q0 -27 24 -51.5t63 -41.5t92 -27.5t111 -10.5q147 0 255 59.5t194 164.5v462h129v-779h-129v170z" />
    <glyph glyph-name="glyph346" horiz-adv-x="1216" 
d="M58 159q0 45 35 87.5t97 70.5q-13 11 -27 23q-15 12 -26.5 28t-18.5 36t-7 45q0 93 104 159q53 33 114 44t134 16q41 3 78 12t64.5 24t44 33.5t16.5 41.5q0 14 -12.5 26t-34.5 21t-50 14t-62 5q-39 0 -72.5 -9.5t-58.5 -27t-39.5 -41.5t-14.5 -54h-118q0 36 11.5 67
t29.5 55.5t40 42t43 26.5q-58 29 -103.5 71t-76.5 93.5t-47 109.5t-16 117h132q0 -71 28 -133.5t76.5 -109.5t114 -74t137.5 -27q77 0 146.5 15.5t122 42.5t83.5 63t31 77q0 33 -23.5 56t-55.5 23q-19 0 -36.5 -11.5t-30.5 -31t-20.5 -46t-7.5 -55.5h-127v52q0 38 -24.5 65
t-57.5 27q-27 0 -46.5 -19.5t-19.5 -46.5q0 -16 8.5 -30t18.5 -23l-90 -52q-22 16 -38 47.5t-16 64.5q0 36 13.5 68t36.5 56.5t54 39t66 14.5q58 0 100.5 -25.5t58.5 -66.5q19 41 62 66.5t109 25.5q41 0 77.5 -15.5t62 -44t40.5 -66.5t15 -85v-899h-89q31 -18 48.5 -42.5
t17.5 -48.5q0 -36 -15 -67t-40 -54.5t-58.5 -37t-71.5 -13.5q-94 0 -172 24t-132 68q-54 -44 -127.5 -68t-162.5 -24q-47 0 -87.5 15t-71 40t-48.5 58.5t-18 71.5zM507 132q-45 45 -96 68.5t-101 23.5q-51 0 -85.5 -19t-34.5 -46q0 -17 11.5 -32t31 -25t45.5 -16.5t57 -6.5
q80 0 172 53zM930 146q0 27 -27 46.5t-66 19.5q-58 0 -105.5 -17.5t-78.5 -48.5q20 -25 64.5 -39t106.5 -14q44 0 75 15.5t31 37.5zM956 476v475q-48 -40 -101.5 -63.5t-108.5 -28.5q23 -11 37 -36.5t14 -56.5q0 -42 -20 -75.5t-55.5 -59t-85 -40t-110.5 -21.5
q-55 -5 -106.5 -14t-91 -23t-62.5 -35t-23 -49q0 -34 24.5 -63t66 -50t96.5 -33.5t117 -12.5q76 0 144 13.5t121.5 38t90.5 59t53 75.5z" />
    <glyph glyph-name="glyph347" horiz-adv-x="1543" 
d="M107 442q0 109 35 196t97 141q-75 52 -117 133t-42 172q0 73 22.5 134.5t63.5 102.5l100 -53q-33 -37 -49.5 -85t-16.5 -99q0 -75 39.5 -140.5t106 -113.5t155.5 -76t188 -28q76 0 143 26t117.5 71t79.5 105t29 129q0 34 -11.5 65t-31 55t-46 37.5t-56.5 13.5
q-24 0 -46.5 -9t-39 -25t-26 -38t-9.5 -47v-158h-129v171q0 44 -27.5 75t-66.5 31q-22 0 -41.5 -9t-33.5 -25t-22.5 -38t-8.5 -47q0 -55 53 -118l-92 -66q-43 37 -67.5 85.5t-24.5 98.5q0 49 18.5 92.5t50.5 75.5t75.5 51t92.5 19q45 0 90 -24t81 -68q37 44 82.5 68t90.5 24
q54 0 102 -23.5t84 -62.5t56.5 -92t20.5 -112q0 -109 -49 -202t-135 -155q43 -19 68 -61.5t25 -96.5q0 -29 -9.5 -55t-28 -47.5t-42 -36.5t-53.5 -20q58 -10 95.5 -52.5t37.5 -108.5q0 -47 -20 -83.5t-53 -64.5t-77 -46.5t-91 -30t-94 -17t-88 -5.5q-106 0 -206 32
t-177.5 92t-124.5 147t-47 196zM966 219q0 35 -25.5 59t-63 38t-79 20.5t-70.5 6.5v80q49 0 92 9t75.5 25t51.5 38t19 47q0 22 -12 41t-34 33.5t-50.5 23t-61.5 8.5q-35 0 -66 -10.5t-55 -28.5t-37.5 -42t-13.5 -52h-120q0 44 10.5 75.5t29.5 44.5q-70 7 -126 23.5t-98 41.5
q-51 -34 -78.5 -102.5t-27.5 -155.5q0 -85 37.5 -150t99 -109.5t139.5 -67t160 -22.5q37 0 88.5 4t100 16.5t82 38t33.5 67.5zM1312 774q-43 -12 -92.5 -51t-103.5 -103l-74 75q101 110 190 170t155 60q22 0 38 -11.5t16 -28.5v-885h-129v774z" />
    <glyph glyph-name="glyph348" horiz-adv-x="1309" 
d="M106 212q0 49 24.5 92t65.5 75.5t96 51t117 18.5q32 0 61 10.5t50.5 28.5t34.5 41.5t13 52.5q0 27 -12 51t-31 42t-45.5 28t-56.5 10q-31 0 -57.5 -7t-45.5 -20t-31 -29.5t-12 -36.5q0 -9 7 -18q6 -10 13 -21t13.5 -24t6.5 -28q0 -22 -23 -37.5t-57 -15.5q-22 0 -41 11.5
t-33.5 31t-22.5 46t-8 55.5q0 47 36 90t91 69q-81 39 -130.5 121.5t-49.5 195.5q0 52 19 114t61 111l118 -26q-36 -46 -54.5 -99.5t-18.5 -99.5q0 -61 24.5 -114.5t69 -92.5t106.5 -61t138 -22q62 0 116.5 21.5t96.5 57t66 83t24 101.5q0 86 -20.5 129.5t-58.5 43.5
q-45 0 -61.5 -16.5t-16.5 -50.5v-158h-129v132q0 33 -17.5 56t-39.5 23q-79 0 -79 -92q0 -28 14 -53t39 -39l-119 -40q-32 27 -49.5 61.5t-17.5 70.5q0 44 16 82t43.5 66.5t63.5 45.5t76 17q46 0 82.5 -22t48.5 -57q21 36 58.5 57.5t103.5 21.5q38 0 73 -11.5t61.5 -33.5
t42 -54t15.5 -73v-250l241 290v-158l-241 -318v-53l294 -369v-145l-294 330v-502h-129v159q-62 -87 -172.5 -136t-249.5 -49q-64 0 -121.5 19t-101.5 51t-69 75.5t-25 92.5zM845 370v435q-31 -36 -78.5 -63t-106.5 -33q40 -47 40 -141q0 -49 -18.5 -92.5t-51.5 -75.5
t-76 -51t-92 -19q-45 0 -86 -10t-72 -27.5t-49 -42t-18 -51.5q0 -22 17.5 -41t46.5 -33t67 -22.5t81 -8.5q66 0 128 20t114 57t92 87t62 112z" />
    <glyph glyph-name="glyph349" horiz-adv-x="1249" 
d="M350 620q19 17 50.5 28.5t69.5 11.5q50 0 91 -25t61 -67q19 42 61 67t92 25q51 0 91.5 -24.5t69.5 -69t45 -108t16 -141.5q0 -76 -15.5 -139t-44.5 -108t-70 -70.5t-94 -25.5q-47 0 -85.5 21.5t-59.5 57.5q-13 -35 -56.5 -57t-101.5 -22q-52 0 -94 24.5t-71 70
t-44.5 108.5t-15.5 140q0 106 39 212q-53 21 -97 57t-75 81t-48.5 98t-17.5 107q0 98 45.5 184.5t123 151t180.5 102t219 37.5q72 0 138.5 -15t124 -42.5t102 -66.5t71.5 -88v155h129v-630h-129v185q0 80 -35 149.5t-94 121t-138.5 82t-168.5 30.5t-167.5 -27.5t-138.5 -76
t-95 -113.5t-35 -139q0 -39 11 -77t32.5 -71t53.5 -60t75 -44zM561 317q0 225 -91 225q-44 0 -68.5 -58t-24.5 -167q0 -224 93 -224q91 0 91 224zM866 317q0 109 -24.5 167t-68.5 58q-48 0 -70 -53.5t-22 -171.5q0 -225 81 -225q49 0 76.5 53.5t27.5 171.5z" />
    <glyph glyph-name="glyph350" horiz-adv-x="1345" 
d="M719 79q-39 0 -71.5 14.5t-57 40t-38 58t-13.5 70.5q0 58 36 106.5t96 73.5l-7 7q-45 -26 -125 -26q-67 0 -127 22.5t-105.5 61.5t-72 91t-26.5 111l1 25q-84 15 -128 76.5t-44 151.5q0 82 45.5 151.5t123 121.5t180.5 82t219 30t219.5 -35.5t180.5 -96t122.5 -142.5
t45.5 -175q0 -39 -8.5 -77t-23 -72t-33.5 -63t-41 -51l-98 65q38 46 58 97t20 101q0 68 -35 128.5t-96 105t-141.5 70.5t-170.5 26q-88 0 -166.5 -20t-138.5 -55t-95 -84t-35 -107q0 -46 20 -72t46 -31q24 54 68.5 95t102.5 63l67 -92q-67 -31 -106 -82.5t-39 -135.5
q0 -37 16.5 -69.5t45.5 -57t68 -38t81 -13.5q51 0 96 11.5t79.5 32t54.5 48.5t20 59q0 20 -10.5 36.5t-29 28t-40 17.5t-43.5 6l-140 -108l-67 83l396 303l67 -81l-170 -129q31 0 59.5 -12.5t49.5 -33.5t34 -49.5t13 -60.5q0 -50 -26.5 -94t-72.5 -71q14 2 28 5q12 2 25 3
t22 1q89 0 158 -25.5t107 -70.5v128h129v-577h-129v282q-5 32 -29 59t-59 47t-81.5 31t-97.5 11q-108 0 -166 -37.5t-58 -107.5q0 -36 18 -61t43 -25q9 54 56.5 88.5t113.5 34.5q35 0 67 -14t56 -37.5t38 -55t14 -68.5q0 -34 -13.5 -66t-37.5 -55.5t-56 -38t-68 -14.5
q-66 0 -113.5 35.5t-56.5 91.5zM961 125q0 31 -21.5 52.5t-50.5 21.5q-30 0 -51 -21.5t-21 -52.5q0 -30 21 -51t51 -21q29 0 50.5 21t21.5 51z" />
    <glyph glyph-name="glyph351" horiz-adv-x="1171" 
d="M308 156q-35 3 -65 16.5t-52.5 36t-35 53t-12.5 64.5q0 36 13.5 68t36 57.5t52.5 45t62 31.5q-21 11 -41.5 30.5t-36 44t-25 52t-9.5 58.5q-34 9 -61.5 29t-47.5 48.5t-31 63t-11 72.5q0 88 44 164.5t117.5 133.5t171.5 90t206 33q111 0 209 -33t171.5 -90t116 -133
t42.5 -161q0 -46 -14 -88t-40 -73l-119 66q40 58 40 94q0 62 -32.5 116.5t-89 95.5t-130.5 64t-158 23t-158 -24t-130 -65t-89 -96t-33 -118q0 -31 14 -56t39 -37q19 54 63 95.5t103 63.5l71 -93q-66 -23 -105 -70.5t-39 -101.5q0 -32 18.5 -61t51.5 -51t76 -34t91 -12
q45 0 86 9.5t71.5 26t49 39.5t18.5 50q0 31 -31 52t-80 21l-127 -115l-71 79l337 311l76 -76l-142 -130q34 0 62 -11t49.5 -31t34 -47t12.5 -60q0 -42 -27.5 -81.5t-76.5 -65.5q51 -5 97.5 -25t83 -51.5t58.5 -74t22 -93.5q0 -45 -20.5 -87.5t-58.5 -68.5l-80 73
q40 32 40 78q0 39 -28.5 70.5t-77.5 54t-113.5 35.5t-136.5 13q-66 0 -123 -10.5t-100.5 -29t-68.5 -44.5t-25 -58q0 -29 18 -48t44 -21q11 33 40 61.5t69 42.5l66 -79q-37 -22 -57.5 -44.5t-20.5 -60.5q0 -47 38.5 -70t92.5 -23q119 0 119 80q0 11 -6 22.5t-15 19.5
l-75 -38l-40 76l258 133l40 -77l-85 -43q17 -20 30 -44t13 -49q0 -38 -19 -71.5t-51.5 -58.5t-75.5 -40t-92 -15q-54 0 -98.5 13t-77.5 37.5t-51 58t-18 73.5z" />
    <glyph glyph-name="glyph352" horiz-adv-x="1311" 
d="M709 106q-32 0 -61 11.5t-50 31.5t-34 46.5t-13 56.5q-103 0 -194 40t-159.5 108t-108.5 159t-40 194q0 73 26 138t71 113.5t105 76.5t128 28q8 0 23.5 -1t37.5 -5q-4 6 -6 19t-2 27q0 42 20 77.5t55 62.5t80 42.5t95 15.5q78 0 142.5 -35t99.5 -97v75h129v-828
q22 -3 44.5 -12t37.5 -27v237h129v-423h-129q-8 30 -28 54.5t-48 42t-63.5 27t-74.5 9.5q-50 0 -96 -9t-81 -25t-54.5 -38t-19.5 -46q0 -17 23 -28.5t56 -11.5q17 36 56.5 57t88.5 21q39 0 72.5 -12t58.5 -34t40 -50.5t15 -61.5t-14.5 -62t-39.5 -50t-59 -33.5t-73 -12.5
q-37 0 -71 10.5t-59 28.5t-40 42t-15 51zM974 132q0 22 -23 37t-57 15q-32 0 -55.5 -15t-23.5 -37t23.5 -37.5t55.5 -15.5q34 0 57 15.5t23 37.5zM682 476q0 44 -20.5 82t-56.5 66.5t-84 45t-102 16.5q-77 0 -129.5 -16.5t-81.5 -34.5q15 -58 46 -107t73.5 -84t93 -54.5
t104.5 -19.5q34 0 62 8.5t49.5 22.5t33.5 33.5t12 41.5zM924 476v528q-20 50 -46.5 91t-58 71t-67 46t-70.5 16q-24 0 -46 -6.5t-39 -17.5t-26.5 -26.5t-9.5 -33.5q0 -27 8 -46.5t22 -37.5q23 -9 43.5 -20t42 -25t45.5 -32.5t53 -44.5l-66 -93q-67 67 -152 103t-178 36
q-41 0 -77 -18.5t-63 -50t-42.5 -73.5t-15.5 -89q50 30 110.5 45t127.5 15q79 0 150 -26.5t124 -72.5t84.5 -107t31.5 -131h115z" />
    <glyph glyph-name="glyph353" horiz-adv-x="1313" 
d="M618 224l2 33q-16 -9 -40 -14.5t-54 -5.5q-98 0 -185 41.5t-151.5 112.5t-102 166.5t-37.5 202.5q0 71 25.5 134.5t71 111.5t109 75.5t139.5 27.5h11l43 -1q0 4 -1 9q-2 4 -2 9v10q0 44 22.5 83t61 67.5t88.5 44.5t106 16q98 0 179 -41t125 -111v95h129v-881
q39 -34 61 -82t22 -103q0 -52 -24.5 -99.5t-67 -82t-99.5 -54.5t-121 -20t-120 20t-98.5 54.5t-67 81t-24.5 100.5zM1107 222q0 31 -14.5 58t-39 47t-57 31.5t-68.5 11.5q-35 0 -67.5 -11.5t-57 -31.5t-38.5 -47t-14 -58t13.5 -58t38 -47t56.5 -31.5t69 -11.5t70 11.5
t57.5 32t38 47t13.5 57.5zM671 489q0 41 -22.5 77t-60 62.5t-88 42t-107.5 15.5q-69 0 -117.5 -20t-74.5 -42q12 -55 40.5 -104t71 -85t97 -57.5t116.5 -21.5q30 0 56.5 10.5t46 28.5t31 42.5t11.5 51.5zM925 476q63 0 103 -14v489q-22 62 -55 113.5t-73.5 87.5t-85.5 56
t-90 20q-30 0 -56.5 -7.5t-46 -20.5t-31 -30t-11.5 -36q0 -23 8 -40t22 -30q35 -13 67 -28.5t66 -37.5l-58 -100q-78 44 -141.5 65t-137.5 21q-49 0 -90.5 -16t-71 -46.5t-46 -72t-16.5 -94.5v-17q37 31 94.5 49.5t115.5 18.5q85 0 160.5 -25t131.5 -68t88.5 -100.5
t32.5 -123.5q0 -31 -9 -43q53 30 130 30z" />
    <glyph glyph-name="glyph354" horiz-adv-x="1354" 
d="M405 231q93 -66 182.5 -102t172.5 -36q164 0 211 26q-34 6 -63.5 24t-50.5 45t-32.5 61.5t-11.5 70.5q0 50 18.5 95.5t51 79.5t75.5 53.5t92 19.5v397q-10 57 -39 104.5t-71 83t-95.5 55.5t-111.5 20q-35 0 -66.5 -8.5t-55 -22.5t-37 -33.5t-13.5 -41.5q0 -44 47 -84
t125 -60l-53 -106q-56 32 -123 49t-140 17q-52 0 -98 -15.5t-80 -42.5t-54 -63.5t-20 -77.5q70 39 143 59.5t147 20.5q66 0 123.5 -22t100.5 -59.5t68.5 -88t25.5 -107.5t-25.5 -107.5t-68.5 -88.5t-100.5 -60t-123.5 -22q-83 0 -158 38.5t-130.5 103t-88 150.5t-32.5 183
q0 69 31 129.5t83.5 105t122 70t147.5 25.5q-13 13 -13 53q0 49 22 90.5t63 71t99.5 46.5t131.5 17q100 0 184.5 -38t132.5 -108v89h129v-748q59 -22 97.5 -74.5t38.5 -137.5q0 -78 -42 -144t-116.5 -113t-175.5 -73t-221 -26q-97 0 -208 33.5t-220 111.5zM1183 322
q0 28 -9 50.5t-26 40t-38 27t-47 9.5q-25 0 -46.5 -9.5t-38 -27t-25.5 -40t-9 -50.5q0 -25 9 -47.5t25.5 -39.5t38 -26.5t46.5 -9.5q26 0 47 9.5t38 26.5t26 39.5t9 47.5zM641 542q0 29 -15 55.5t-40 46t-58.5 31t-72.5 11.5q-78 0 -145 -18.5t-118 -53.5q13 -48 39 -88
t60.5 -69t76.5 -45t87 -16q39 0 72.5 11.5t58.5 31.5t40 46.5t15 56.5z" />
    <glyph glyph-name="glyph355" horiz-adv-x="1354" 
d="M405 231q93 -66 182.5 -102t172.5 -36q164 0 211 26q-34 6 -63.5 24t-50.5 45t-32.5 61.5t-11.5 70.5q0 50 18.5 95.5t51 79.5t75.5 53.5t92 19.5v397q-10 57 -39 104.5t-71 83t-95.5 55.5t-111.5 20q-35 0 -66.5 -8.5t-55 -22.5t-37 -33.5t-13.5 -41.5q0 -44 47 -84
t125 -60l-53 -106q-56 32 -123 49t-140 17q-52 0 -98 -15.5t-80 -42.5t-54 -63.5t-20 -77.5q70 39 143 59.5t147 20.5q66 0 123.5 -22t100.5 -59.5t68.5 -88t25.5 -107.5t-25.5 -107.5t-68.5 -88.5t-100.5 -60t-123.5 -22q-83 0 -158 38.5t-130.5 103t-88 150.5t-32.5 183
q0 69 31 129.5t83.5 105t122 70t147.5 25.5q-13 13 -13 53q0 49 22 90.5t63 71t99.5 46.5t131.5 17q100 0 184.5 -38t132.5 -108v89h129v-748q59 -22 97.5 -74.5t38.5 -137.5q0 -69 -37 -132.5t-99 -109.5v-484h-944v119h816v296q-127 -45 -291 -45q-97 0 -208 33.5
t-220 111.5zM641 542q0 29 -15 55.5t-40 46t-58.5 31t-72.5 11.5q-78 0 -145 -18.5t-118 -53.5q13 -48 39 -88t60.5 -69t76.5 -45t87 -16q39 0 72.5 11.5t58.5 31.5t40 46.5t15 56.5zM1183 322q0 28 -9 50.5t-26 40t-38 27t-47 9.5q-25 0 -46.5 -9.5t-38 -27t-25.5 -40
t-9 -50.5q0 -25 9 -47.5t25.5 -39.5t38 -26.5t46.5 -9.5q26 0 47 9.5t38 26.5t26 39.5t9 47.5z" />
    <glyph glyph-name="glyph356" horiz-adv-x="1320" 
d="M753 343q0 57 21 107.5t57 88.5t83.5 59.5t102.5 21.5v331q0 56 -21 106.5t-56.5 88t-83 60t-103.5 22.5q-53 0 -80 -31.5t-27 -78.5q0 -41 8.5 -61.5t18.5 -36.5q34 -15 77 -44.5t76 -71.5l-86 -85q-63 63 -138.5 97.5t-152.5 34.5q-52 0 -97 -15t-78.5 -40t-55 -58.5
t-26.5 -71.5q36 7 66 10t46 3q79 0 148.5 -26.5t121.5 -71t82 -104.5t30 -128q0 -54 -20 -102.5t-54 -84.5t-79 -57t-97 -21q-80 0 -149.5 41t-122 109t-82 160t-29.5 192q0 165 116 281q58 59 131 83.5t155 24.5q18 0 39.5 -2t36.5 -7q-6 15 -11 35.5t-5 45.5
q0 97 62.5 148.5t175.5 51.5q83 0 152.5 -33t111.5 -92v94h129v-734q50 -23 79.5 -73.5t29.5 -112.5q0 -46 -17.5 -88t-48.5 -73t-74 -50t-95 -19q-18 0 -42.5 1.5t-37.5 4.5q8 -16 27.5 -30t46 -25t58 -17.5t63.5 -6.5h146v-119h-145q-86 0 -157 30t-121 80t-77.5 117
t-27.5 142zM1122 396q0 44 -31 75t-74 31q-28 0 -53 -12.5t-43 -33.5t-29 -50t-11 -63q0 -30 8.5 -45t24 -22.5t36.5 -8t47 -0.5q63 0 94 37.5t31 91.5zM555 449q0 44 -20 82.5t-54.5 67t-80 45t-96.5 16.5q-50 0 -78.5 -2.5t-41.5 -9.5q0 -70 20 -132.5t54 -109t80 -74.5
t98 -28q25 0 46 12t37 31t26 45.5t10 56.5z" />
    <glyph glyph-name="glyph357" horiz-adv-x="1334" 
d="M405 1109q41 0 53 -5q-4 7 -7 20.5t-3 27.5q0 41 20 76.5t53.5 61.5t79 41.5t96.5 15.5q56 0 108 -13.5t95 -38t76.5 -58t52.5 -73.5v126h129v-823q49 -9 81 -49.5t32 -95.5q0 -41 -23.5 -74t-61.5 -47q41 -15 66 -48t25 -72q0 -46 -24.5 -86t-65.5 -70.5t-96 -48
t-117 -17.5q-97 0 -182 31t-149.5 84t-102 124.5t-37.5 153.5q-94 0 -176.5 43t-144.5 116.5t-97.5 172t-35.5 208.5q0 68 27.5 126.5t75.5 101t113 66t140 23.5zM673 489q0 41 -22.5 76.5t-61 62t-89.5 42t-108 15.5q-100 0 -184 -52q10 -59 39.5 -110t72 -87.5t95 -58
t110.5 -21.5q31 0 58 10.5t47 28.5t31.5 42.5t11.5 51.5zM392 806q84 0 159 -25t131 -67.5t88 -100.5t32 -124q0 -36 -12 -70.5t-35.5 -64t-55 -52.5t-69.5 -38q0 -56 27 -106.5t74 -88.5t109.5 -60t133.5 -22q35 0 66 7t54.5 20t37.5 29t14 36q0 28 -26 48.5t-62 20.5h-111
v104h111q36 0 62 20.5t26 49.5q0 20 -19.5 34t-46.5 14q-47 0 -85.5 -17.5t-60.5 -48.5l-79 86q38 43 83.5 67.5t90.5 26.5v467q-22 62 -57 113t-79.5 87.5t-95 56.5t-100.5 20q-49 0 -84 -27t-35 -65q0 -27 10.5 -48t28.5 -31q45 -21 74.5 -38t43.5 -28l-59 -100
q-172 100 -270 100q-46 0 -87.5 -14.5t-72.5 -40t-48 -62.5t-17 -82q0 -17 0.5 -25t1.5 -15q45 26 99.5 40t109.5 14z" />
    <glyph glyph-name="glyph358" horiz-adv-x="1309" 
d="M578 159q-48 -40 -119 -40q-51 0 -97.5 22.5t-80 61t-53.5 90t-20 109.5q0 68 25 113q-41 14 -75 45t-58 73t-37.5 93t-13.5 106q0 107 47 200.5t128.5 163t189.5 110.5t230 41q121 0 229.5 -41t189.5 -110.5t128 -163t47 -200.5q0 -89 -23.5 -160.5t-68.5 -116.5
l-106 65q32 47 49.5 100.5t17.5 111.5q0 83 -37 155t-100 125.5t-147 84.5t-179 31q-94 0 -178.5 -31t-148 -84.5t-100 -125.5t-36.5 -155q0 -77 32.5 -134.5t87.5 -77.5q25 31 67 48.5t91 17.5q62 0 111 -24.5t74 -66.5q24 42 66.5 66.5t91.5 24.5q47 0 87 -18t70 -49
t47.5 -71.5t17.5 -85.5v-462h-129v462q0 44 -27 75t-66 31q-38 0 -66.5 -31t-28.5 -75v-462h-129v159zM578 370v66q0 27 -9 51t-25 42t-38 28.5t-47 10.5q-24 0 -46 -13.5t-39 -36.5t-26 -52.5t-9 -63.5q0 -33 9 -62.5t25.5 -52.5t38 -36.5t47.5 -13.5q25 0 47 10.5t38 28.5
t25 42.5t9 51.5zM274 -199l146 252l105 -53l-60 -119l594 -166l-46 -124z" />
    <glyph glyph-name="glyph359" horiz-adv-x="1312" 
d="M192 383q0 75 26 146q-81 46 -126.5 123.5t-45.5 166.5q0 109 48.5 205t131 167.5t193.5 113.5t235 42q120 0 225 -48.5t184.5 -131t125.5 -193t46 -235.5q0 -104 -39 -225t-112 -250l151 -251l-105 -66l-186 317q78 137 118.5 257t40.5 218q0 101 -35.5 190t-97 155.5
t-142.5 105t-174 38.5q-98 0 -184.5 -32t-151 -87.5t-102.5 -130.5t-38 -159q0 -62 21.5 -110.5t58.5 -73.5q28 62 75.5 111.5t108.5 85.5l66 -93q-86 -62 -135 -155t-49 -201q0 -59 22 -112t60 -92.5t88 -62.5t107 -23q32 0 61 9t50.5 25t34.5 38t13 47q0 32 -31 55t-75 23
q-15 0 -43 -13t-76 -40l-65 93q60 29 108.5 59t82.5 59t53 56t19 51q0 22 -19.5 37.5t-46.5 15.5q-32 0 -61 -26t-45 -67l-106 67q39 67 96 105.5t116 38.5q41 0 77 -13.5t63.5 -36.5t43 -54t15.5 -67q0 -45 -21.5 -91t-71.5 -81q54 -26 86 -71.5t32 -99.5q0 -49 -23 -92.5
t-62.5 -75.5t-92.5 -51t-112 -19q-84 0 -158 32.5t-130 88.5t-88.5 130t-32.5 158z" />
    <glyph glyph-name="glyph360" horiz-adv-x="1382" 
d="M1011 -179q-13 -16 -36.5 -24.5t-54.5 -8.5q-35 0 -66.5 15.5t-55 43t-37 63.5t-13.5 77v79q-45 -26 -133 -26q-73 0 -137.5 29.5t-113 80t-77 117.5t-28.5 142q0 71 13 93q-49 9 -90 37.5t-71 71t-46.5 96t-16.5 112.5q0 109 49.5 205t134 167.5t197.5 113.5t239 42
q125 0 236 -50.5t193.5 -137t130.5 -201t48 -245.5q0 -113 -30.5 -224t-88.5 -212l185 -211l-92 -79l-239 277q66 93 99.5 207.5t33.5 241.5q0 106 -37.5 199.5t-102.5 164t-151.5 111t-184.5 40.5q-102 0 -191.5 -32t-157 -87.5t-107 -130t-39.5 -159.5q0 -40 10 -75.5
t28.5 -62.5t42 -43t52.5 -16q31 67 80 120.5t111 89.5l65 -93q-81 -58 -126 -143.5t-45 -186.5q0 -50 17.5 -96t48.5 -80t71.5 -54t86.5 -20q38 0 71 8t58 22.5t39 34t14 40.5q0 22 -22.5 37.5t-53.5 15.5q-45 0 -79 -27l-52 106q45 8 83 24.5t65.5 40t43 51t15.5 56.5
q0 22 -18.5 37t-44.5 15t-60.5 -23.5t-71.5 -67.5l-78 79q44 62 99.5 96.5t110.5 34.5q39 0 74.5 -13.5t61 -36.5t41 -55t15.5 -66q0 -55 -26.5 -100t-72.5 -72q45 -17 72 -53t27 -79q0 -37 -12 -68.5t-34 -49.5v-159q0 -27 19 -46.5t47 -19.5q27 0 46 19.5t19 46.5v92h129
v-383h-129v125z" />
    <glyph glyph-name="glyph361" horiz-adv-x="1311" 
d="M192 383q0 75 26 146q-81 46 -126.5 123.5t-45.5 166.5q0 109 48.5 205t131 167.5t193.5 113.5t235 42q120 0 225 -48.5t184.5 -131t125.5 -193t46 -235.5q0 -104 -39 -225t-112 -250l151 -251l-105 -66l-186 317q78 137 118.5 257t40.5 218q0 101 -35.5 190t-97 155.5
t-142.5 105t-174 38.5q-98 0 -184.5 -32t-151 -87.5t-102.5 -130.5t-38 -159q0 -62 21.5 -110.5t58.5 -73.5q28 62 75.5 111.5t108.5 85.5l66 -93q-86 -62 -135 -155t-49 -201q0 -59 22 -112t60 -92.5t88 -62.5t107 -23q32 0 61 9t50.5 25t34.5 38t13 47q0 32 -31 55t-75 23
q-15 0 -43 -13t-76 -40l-65 93q60 29 108.5 59t82.5 59t53 56t19 51q0 22 -19.5 37.5t-46.5 15.5q-32 0 -61 -26t-45 -67l-106 67q39 67 96 105.5t116 38.5q41 0 77 -13.5t63.5 -36.5t43 -54t15.5 -67q0 -45 -21.5 -91t-71.5 -81q54 -26 86 -71.5t32 -99.5q0 -49 -23 -92.5
t-62.5 -75.5t-92.5 -51t-112 -19q-84 0 -158 32.5t-130 88.5t-88.5 130t-32.5 158zM257 -277h666v317h129v-436h-795v119z" />
    <glyph glyph-name="glyph362" horiz-adv-x="1236" 
d="M962 93q-47 -58 -136 -88.5t-207 -30.5q-55 0 -109.5 13t-97.5 37.5t-69.5 59.5t-26.5 77q0 44 20.5 75t54 52.5t76.5 35t86 22.5q46 9 76 22t30 49t-36 60.5t-88 24.5q-31 0 -59 -10.5t-49 -28.5t-33 -42t-12 -51l-119 13q0 48 23.5 90t65.5 68q-28 7 -54 24.5t-45.5 41
t-31 51t-11.5 55.5q-38 11 -70 34t-54.5 55.5t-34.5 71.5t-12 83q0 80 45 151t122 124t179.5 84t216.5 31q118 0 220 -28t184 -91q84 -63 122.5 -142.5t38.5 -168.5q0 -44 -14.5 -93t-43.5 -98l-113 47q46 80 46 144q0 66 -34 122.5t-93.5 98.5t-138.5 66t-168 24
q-92 0 -174 -20.5t-143 -57.5t-97.5 -86.5t-36.5 -106.5q0 -46 19.5 -79t46.5 -33q20 54 66 91.5t106 47.5l40 -99q-48 -17 -77 -49t-29 -80q0 -35 18.5 -62t51 -46.5t75.5 -29.5t92 -10q48 0 91 8t76 22.5t52.5 33.5t19.5 41q0 25 -17 39t-36 29q-19 14 -36 31t-17 47
q0 27 20.5 46.5t58.5 19.5q37 0 67 -16t50.5 -43.5t31 -63.5t10.5 -76q0 -36 -15 -69t-40 -59.5t-60 -46.5t-76 -31q22 -22 33.5 -48.5t11.5 -49.5q0 -43 -17.5 -72t-46.5 -47t-68 -29.5t-80 -19.5q-63 -13 -103.5 -35t-40.5 -54q0 -23 21 -37t51.5 -21.5t61.5 -10t50 -2.5
q72 0 135 14.5t109 41.5t72.5 66t26.5 90v249h129v-555h-129v93z" />
    <glyph glyph-name="glyph363" horiz-adv-x="1338" 
d="M233 436q0 21 1.5 37t6.5 30q-49 14 -85 46.5t-60 75.5t-35.5 93.5t-11.5 100.5q0 109 46.5 205t126 167.5t184.5 113.5t224 42t225 -47t185.5 -128t125 -188.5t45.5 -230.5q0 -67 -16.5 -131.5t-48.5 -119.5l-119 66q53 76 53 185q0 97 -35.5 183.5t-96 151
t-143.5 102.5t-175 38t-174 -32t-143 -87.5t-96.5 -130.5t-35.5 -159q0 -39 7.5 -73.5t21.5 -61t33.5 -43.5t42.5 -21q34 59 88 103.5t124 68.5l66 -92q-44 -15 -81 -42t-62.5 -62t-40 -76t-14.5 -84q0 -49 20 -92t54.5 -75.5t80 -51t96.5 -18.5q50 0 94 15.5t76 42t50 61.5
t18 77q0 56 -14 81q-13 -9 -34 -18t-43 -9q-49 0 -78 29t-29 70q0 27 10 52.5t28 44.5t42 30t51 11q47 0 83.5 -21t62.5 -60t39.5 -91.5t13.5 -116.5q0 -67 -28.5 -125t-79 -101t-118 -67.5t-144.5 -24.5q-79 0 -148.5 28t-122 76.5t-83 113.5t-30.5 139zM1171 199h133v-451
h-129v318q-6 1 -19 1q-35 0 -74.5 -11.5t-73 -29t-58 -39t-29.5 -40.5q30 -10 48 -36t18 -57q0 -37 -27 -64t-66 -27q-25 0 -46 11.5t-37 31t-26 45.5t-10 56q0 56 35.5 108t92.5 92.5t127 66t141 25.5z" />
    <glyph glyph-name="glyph364" horiz-adv-x="1349" 
d="M1078 166q-20 -43 -58 -78.5t-90 -61t-115 -39t-134 -13.5q-89 0 -168.5 29t-138.5 79.5t-94 117.5t-35 143q0 50 13.5 91.5t39.5 67.5q-55 14 -101 47t-79 78.5t-51.5 101t-18.5 116.5q0 103 46.5 194.5t125.5 160t184.5 108t223.5 39.5q74 0 142 -16t127 -45.5
t105.5 -70.5t75.5 -93v168h129v-1290h-129v166zM1078 462v383q0 80 -35.5 149.5t-96.5 121t-143 82t-175 30.5q-91 0 -172.5 -30.5t-142.5 -82t-97.5 -121t-36.5 -149.5q0 -44 15 -83.5t41.5 -71t62.5 -53.5t80 -29q48 47 111 73t133 26l20 -112q-55 -5 -103 -26.5
t-84 -55.5t-56.5 -77.5t-20.5 -92.5q0 -50 24 -96t66 -79.5t96.5 -53.5t116.5 -20q81 0 153.5 29t126.5 79.5t85.5 117.5t31.5 142zM784 -252l185 278l105 -66l-105 -144l501 -159l-40 -106z" />
    <glyph glyph-name="glyph365" horiz-adv-x="1295" 
d="M233 436q0 21 1.5 37t6.5 30q-49 14 -85 46.5t-60 75.5t-35.5 93.5t-11.5 100.5q0 109 46.5 205t126 167.5t184.5 113.5t224 42t225 -47t185.5 -128t125 -188.5t45.5 -230.5q0 -67 -16.5 -131.5t-48.5 -119.5l-119 66q53 76 53 185q0 97 -35.5 183.5t-96 151
t-143.5 102.5t-175 38t-174 -32t-143 -87.5t-96.5 -130.5t-35.5 -159q0 -39 7.5 -73.5t21.5 -61t33.5 -43.5t42.5 -21q34 59 88 103.5t124 68.5l66 -92q-44 -15 -81 -42t-62.5 -62t-40 -76t-14.5 -84q0 -49 20 -92t54.5 -75.5t80 -51t96.5 -18.5q50 0 94 15.5t76 42t50 61.5
t18 77q0 56 -14 81q-13 -9 -34 -18t-43 -9q-49 0 -78 29t-29 70q0 27 10 52.5t28 44.5t42 30t51 11q47 0 83.5 -21t62.5 -60t39.5 -91.5t13.5 -116.5q0 -67 -30.5 -131.5t-90.5 -108.5q-17 -29 -17 -67q0 -23 9.5 -43.5t27 -36t40 -24.5t48.5 -9q28 0 53.5 9t43.5 24.5
t29 36t11 43.5v134h129v-438h-129v111q-20 -18 -55.5 -28t-81.5 -10q-49 0 -93 19t-76 50.5t-51 74t-19 90.5q-28 -8 -57.5 -11t-60.5 -3q-79 0 -148.5 28t-122 76.5t-83 113.5t-30.5 139z" />
    <glyph glyph-name="glyph366" horiz-adv-x="1309" 
d="M617 1347q68 0 131 -14.5t119.5 -41.5t103.5 -66t82 -90v155h129v-1118l-261 -146l528 -185l-53 -105l-726 277l383 224v595q0 81 -34.5 153.5t-93.5 126.5t-138.5 85t-169.5 31q-91 0 -171 -31t-140 -84.5t-94.5 -125t-34.5 -152.5q0 -52 17.5 -98.5t49 -85t76 -66.5
t99.5 -43q75 63 155 106t161 65l53 -105q-180 -66 -298 -176q-118 -111 -139 -233q33 0 57 -23.5t24 -56.5t-31 -56t-75 -23q-22 0 -41 10.5t-33.5 28.5t-22.5 41.5t-8 51.5q0 69 30 137.5t88 126.5q-67 18 -120.5 55.5t-91 89.5t-58 117.5t-20.5 136.5q0 100 44.5 193
t121.5 164t180 113t222 42z" />
    <glyph glyph-name="glyph367" horiz-adv-x="2107" 
d="M337 582q29 45 76.5 86t112.5 74l69 -94q-97 -56 -151 -137t-54 -168q0 -51 20 -96.5t53.5 -79t79 -53t97.5 -19.5q53 0 98.5 19t80 50.5t53.5 75t19 90.5q0 30 -5 53t-14 40q-31 -27 -71 -27q-24 0 -45.5 9t-37.5 25t-25 37.5t-9 44.5q0 26 11 48t29 38.5t43 26.5t52 10
q41 0 77.5 -24.5t63 -66t42 -97t15.5 -117.5q0 -72 -30 -137t-81.5 -113.5t-120 -77t-145.5 -28.5q-78 0 -146 29t-119 79.5t-81 117.5t-30 143q0 29 4 63t15 61q-60 17 -104 52.5t-72 82.5t-42.5 103t-14.5 114q0 110 47 206t127 167.5t186.5 113t226.5 41.5t228 -42
t188 -113.5t127 -167.5t47 -205q0 -125 -67 -239l-119 66q53 92 53 173q0 84 -35.5 159t-97 130.5t-143 87.5t-173.5 32q-94 0 -178.5 -32t-148 -87.5t-100 -130.5t-36.5 -159q0 -55 13 -96.5t35 -70.5t49.5 -46.5t57.5 -23.5zM1836 595q-21 -25 -56 -39t-77 -14
q-54 0 -102.5 18.5t-84 51t-57 75.5t-21.5 92v511h129v-511q0 -24 11 -46t29 -38t43.5 -25.5t52.5 -9.5t51.5 9.5t42.5 25.5t28.5 38t10.5 46v511h129v-1290h-129v595zM1567 195q-118 -11 -157 -48q37 -30 57.5 -71.5t20.5 -87.5q0 -34 -14.5 -64.5t-40 -53t-59 -35.5
t-70.5 -13q-42 0 -78 14t-63 38t-42.5 55.5t-15.5 67.5q0 43 24.5 85.5t68.5 78.5l-119 61l66 94l145 -94q82 55 186 84t224 29v-499h-133v359zM1370 -12q0 29 -22 55.5t-58 42.5q-25 -14 -39 -37.5t-14 -51.5t19 -47.5t48 -19.5q27 0 46.5 17t19.5 41z" />
    <glyph glyph-name="glyph368" horiz-adv-x="1206" 
d="M227 159l205 192l-280 66l181 165q-66 11 -119.5 40t-91.5 71t-58.5 94.5t-20.5 110.5q0 93 41 175t110.5 143t162.5 96t198 35q129 -12 229.5 -61.5t155.5 -128.5v133h129v-986l56 -14l-39 -91l-529 123l-106 -98l621 -145l-26 -105zM940 893q0 63 -29.5 121t-81.5 103
t-122 75t-150 36q-77 0 -146.5 -26t-122 -70.5t-83.5 -105t-31 -128.5q0 -43 15.5 -79.5t42.5 -64.5t63.5 -46t77.5 -22q71 0 118 40l159 146l79 -80l-343 -321l554 -128v550z" />
    <glyph glyph-name="glyph369" horiz-adv-x="1204" 
d="M530 1347q129 0 235.5 -44.5t176.5 -126.5v115h131v-1001l-486 109l-120 -136l435 -104q54 25 171 25v-396h-129v239q-94 -17 -161 -59t-92 -100q25 0 43 -23t18 -57q0 -76 -93 -76q-23 0 -43.5 9t-36 24.5t-24.5 36.5t-9 44q0 35 14.5 70.5t42.5 68t67 61.5t87 53
l-502 120l211 224l-291 66l176 153q-58 0 -113.5 23t-99 63.5t-69 97t-25.5 123.5q0 83 38.5 155t105 126.5t155 85.5t187.5 31zM942 971q-22 58 -63 105.5t-95 81t-118.5 52t-132.5 18.5q-74 0 -139 -22t-113.5 -60.5t-77 -89.5t-28.5 -109q0 -43 17 -80.5t46 -65.5t67 -45
t82 -17q31 0 59.5 5t35.5 12l188 157l73 -76l-330 -282l529 -119v535z" />
    <glyph glyph-name="glyph370" horiz-adv-x="1963" 
d="M1693 595q-21 -25 -56 -39t-77 -14q-54 0 -102.5 18.5t-84 51t-57 75.5t-21.5 92v511h129v-511q0 -24 11 -46t29 -38t43.5 -25.5t52.5 -9.5t51.5 9.5t42.5 25.5t28.5 38t10.5 46v511h129v-1290h-129v595zM227 159l205 192l-280 66l181 165q-66 11 -119.5 40t-91.5 71
t-58.5 94.5t-20.5 110.5q0 93 41 175t110.5 143t162.5 96t198 35q129 -12 229.5 -61.5t155.5 -128.5v133h129v-986l56 -14l-39 -91l-529 123l-106 -98l621 -145l-26 -105zM940 893q0 63 -29.5 121t-81.5 103t-122 75t-150 36q-77 0 -146.5 -26t-122 -70.5t-83.5 -105
t-31 -128.5q0 -43 15.5 -79.5t42.5 -64.5t63.5 -46t77.5 -22q71 0 118 40l159 146l79 -80l-343 -321l554 -128v550z" />
    <glyph glyph-name="glyph371" horiz-adv-x="1305" 
d="M782 343q-21 -32 -66.5 -50t-105.5 -18q-62 0 -115.5 22.5t-94 62t-64 91.5t-23.5 111q0 20 7 37q-58 5 -109 32t-88.5 69.5t-58.5 97.5t-21 114q0 114 56.5 195.5t145 135t196 79t209.5 25.5q121 0 229.5 -39.5t190 -108t128.5 -160t47 -194.5q0 -74 -17.5 -137.5
t-49.5 -114.5l-119 58q53 80 53 194q0 80 -36 150.5t-99.5 122t-147 81t-179.5 29.5q-77 0 -161 -16.5t-153.5 -54t-115.5 -97.5t-46 -148q0 -43 14.5 -80t38 -65t56.5 -44.5t70 -16.5q17 40 65 77t119 66l60 -98q-73 -30 -115.5 -81t-42.5 -106q0 -33 13.5 -62t36.5 -50.5
t54 -34.5t67 -13t67 13t54.5 34.5t37 50.5t13.5 62v210h129v-568q19 -2 41 -9t42.5 -17t37.5 -20t25 -19v58h129v-511h-129v294q0 27 -17 50t-45.5 40t-66 26.5t-78.5 9.5q-31 0 -55.5 -9t-42 -23t-26.5 -32t-9 -38q0 -23 15.5 -43.5t41.5 -30.5q25 18 71 18q36 0 67 -13
t54 -35t37 -51t14 -63q0 -33 -14 -62.5t-37.5 -51.5t-54.5 -34.5t-66 -12.5t-66 12.5t-54 34.5t-37.5 51.5t-14.5 62.5q0 44 18 62q-43 17 -69.5 59.5t-26.5 96.5q0 40 15.5 74t41 60t59 42.5t71.5 21.5v139zM912 -212q0 25 -19.5 41.5t-47.5 16.5q-27 0 -46.5 -16.5
t-19.5 -41.5q0 -23 19.5 -39t46.5 -16q28 0 47.5 16t19.5 39z" />
    <glyph glyph-name="glyph372" horiz-adv-x="1183" 
d="M557 529q35 0 65.5 12t53 33.5t35.5 50.5t13 61v133h129v-1003h-129v65q-15 -24 -40 -38.5t-53 -14.5q-35 0 -64 20t-41 53q-11 -33 -50 -53t-89 -20q-34 0 -66 13t-57 35.5t-40 51t-15 59.5q0 27 15.5 55t43.5 51q-36 13 -58 46t-22 73q0 41 22.5 77t62 62.5t91 42
t109.5 15.5q78 0 143.5 -27t107.5 -78v172q-35 -28 -77.5 -43.5t-87.5 -15.5q-56 0 -106.5 21t-87.5 58t-59 86t-22 106v7.5t1 8.5q1 5 1 9q-54 0 -99.5 19t-78.5 51t-52 75.5t-19 92.5q0 82 44.5 154.5t120 126t177 84.5t213.5 31t213.5 -31t177 -85.5t120 -127
t44.5 -155.5q0 -85 -74 -173l-106 66q53 63 53 107q0 59 -34 110t-92.5 89.5t-136.5 59.5t-167 21t-167.5 -20.5t-135.5 -57.5t-90.5 -88t-33.5 -111q0 -34 12 -60.5t32 -45t47 -29t56 -10.5q18 48 58.5 94t106.5 75l64 -90q-64 -37 -98.5 -82.5t-34.5 -113.5q0 -32 12 -61
t32.5 -51t47.5 -35t59 -13zM473 297q-32 0 -62 -6.5t-53.5 -18t-37 -27t-13.5 -33.5q0 -28 33.5 -47t80.5 -19v-93q-44 0 -75 -19.5t-31 -46.5t21 -46.5t51 -19.5q43 0 72 30.5t29 71.5v8.5t-2 8.5h93q-1 -6 -1 -19q0 -36 20.5 -61.5t51.5 -25.5t52.5 35t21.5 84v79
q-7 36 -29.5 66t-56 52t-76 34.5t-89.5 12.5z" />
    <glyph glyph-name="glyph373" horiz-adv-x="1302" 
d="M882 224q-11 -18 -36.5 -29t-57.5 -11q-54 0 -95.5 25.5t-57.5 67.5q-22 -42 -69 -67.5t-107 -25.5q-51 0 -95.5 20t-77.5 54.5t-52.5 80t-19.5 97.5q0 90 29 159q-46 19 -82.5 50.5t-63 71t-40.5 86t-14 95.5q0 94 47.5 176t129.5 142.5t190.5 95.5t229.5 35
q126 0 239 -35.5t197.5 -96t134 -142.5t49.5 -175q0 -54 -22.5 -112t-64.5 -113l-101 66q28 38 43.5 78.5t15.5 80.5q0 68 -39 128t-106.5 105t-156.5 71t-189 26q-96 0 -181.5 -26t-149.5 -70.5t-101.5 -105t-37.5 -128.5q0 -35 11 -66t31 -55.5t47 -41t58 -22.5
q40 78 104 119l74 -90q-73 -54 -112.5 -135t-39.5 -171q0 -27 9 -51t25 -42t37.5 -28.5t44.5 -10.5q45 0 77 27.5t32 64.5v212h129v-212q0 -37 27 -64.5t64 -27.5q39 0 66.5 27.5t27.5 64.5v212h129v-608h-129v224z" />
    <glyph glyph-name="glyph374" horiz-adv-x="1311" 
d="M880 224q-32 -25 -85 -25q-60 0 -105 25.5t-55 65.5q-27 -42 -73.5 -66.5t-102.5 -24.5q-54 0 -101 21t-82.5 56.5t-56 83.5t-20.5 102q0 32 6.5 64.5t20.5 57.5q-40 18 -74.5 47t-58 66.5t-37 82t-13.5 92.5q0 99 50.5 185.5t138 150.5t203 101.5t244.5 37.5
q120 0 227 -35t187.5 -96t127.5 -143t47 -176q0 -62 -16.5 -118.5t-47.5 -105.5l-118 71q25 40 37.5 79t12.5 74q0 68 -36.5 128t-99 105t-146 71.5t-175.5 26.5q-114 0 -194 -22.5t-126 -56.5l650 -449v-700h-129v224zM880 409v239l-612 428q-50 -41 -72 -98t-22 -106
q0 -63 29.5 -112t80.5 -71q32 45 69 85t84 77l85 -83q-43 -40 -79.5 -77.5t-61 -74.5t-38 -75t-13.5 -79q0 -29 10.5 -54t28 -43.5t40.5 -29.5t50 -11q49 0 83.5 29t34.5 70v212h129v-220q0 -37 25.5 -64t63.5 -27q34 0 59.5 25t25.5 60z" />
    </font>
</defs>
</svg>
